Hits: 79 views
1 Star2 Stars3 Stars4 Stars5 Stars (No Ratings Yet)
Loading...

Riley Steele: Love Fool (2010) [1080p] [HD]

Download and Watch This Porn Content Now

Details:

Complete name : Riley Steele, Love Fool (2010) (Dani Jensen, Riley Steele, Sindee Jennings, Tori Black) 1080p.mkv
Format : Matroska
Format version : Version 2
File size : 4.38 GiB
Duration : 1 h 22 min
Overall bit rate : 7 547 kb/s
Writing application : mkvmerge v3.2.0 ('Beginnings') built on Feb 12 2010 16:46:17
Writing library : libebml v0.7.9 + libmatroska v0.8.1

Video
ID : 1
Format : AVC
Format/Info : Advanced Video Codec
Format profile : [email protected]
Format settings : CABAC / 5 Ref Frames
Format settings, CABAC : Yes
Format settings, RefFrames : 5 frames
Codec ID : V_MPEG4/ISO/AVC
Duration : 1 h 22 min
Bit rate : 7 098 kb/s
Width : 1 920 pixels
Height : 1 080 pixels
Display aspect ratio : 16:9
Frame rate mode : Constant
Frame rate : 23.976 FPS
Color space : YUV
Chroma subsampling : 4:2:0
Bit depth : 8 bits
Scan type : Progressive
Bits/(Pixel*Frame) : 0.143
Stream size : 4.03 GiB (92%)
Writing library : x264 core 80 r1376M 3feaec2

Language : English

Audio
ID : 2
Format : AC-3
Format/Info : Audio Coding 3
Commercial name : Dolby Digital
Codec ID : A_AC3
Duration : 1 h 22 min
Bit rate mode : Constant
Bit rate : 448 kb/s
Channel(s) : 6 channels
Channel layout : L R C LFE Ls Rs
Sampling rate : 48.0 kHz
Frame rate : 31.250 FPS (1536 SPF)
Bit depth : 16 bits
Compression mode : Lossy
Stream size : 266 MiB (6%)
Language : English
Service kind : Complete Main
Default : Yes >>Watch or Download>> Riley Steele: Love Fool (2010) [1080p] [HD]

Order Vintagepornbay Premium to Get Access to Downloads for Porn Content
Hits: 1,553 views
1 Star2 Stars3 Stars4 Stars5 Stars (No Ratings Yet)
Loading...

I Came Inside My College-Girl 5 (2016) [HQ] [Modern Movie]

Download and Watch This Porn Content Now

Starring: Molly Mae, Brittany Shae, Shavelle Love, Sara St. Clair, Ramon Nomar, Xander Corvus

 

Duration: 02:01:47 | Size: 1.19 GB | 720x400 | AAC LC | MP4

>>Watch or Download>> I Came Inside My College-Girl 5 (2016) [HQ] [Modern Movie]

Order Vintagepornbay Premium to Get Access to Downloads for Porn Content
Hits: 1,618 views
1 Star2 Stars3 Stars4 Stars5 Stars (No Ratings Yet)
Loading...

Xena XXX An Exquisite Films Parody (2012) (HQ) [Download Links]

Download and Watch This Porn Content Now

Starring: Phoenix Marie, Lexi Belle, Nicole Aniston, Juelz Ventura, Chanel Preston, Randi Wright, Rocco Reed, Lee Stone, Tommy Gunn, Seth Gamble, Tommy

Duration: 02:47:14 | Size: 2.18 GB | 1024x560 | AAC LC | MP4

>>Watch or Download>> Xena XXX An Exquisite Films Parody (2012) (HQ) [Download Links]

Order Vintagepornbay Premium to Get Access to Downloads for Porn Content