Page 1 of 70123...102030...Last »
1 Star2 Stars3 Stars4 Stars5 Stars (1 votes, average: 5.00 out of 5)
Loading...
Hits: 240 views

Streetwalkers (1990) (USA) [NQ] [Download]

Download and Watch This Porn Content Now

Actresses

Alice Springs
April Rayne
Nina Hartley
Patricia Kennedy
Taylor Wane

Actors

Marc Wallice
Tom Byron
Tom Chapman

1.17 GB
01:27:18
656 x 488
25.000 fps
MKV

>>Watch or Download>> Streetwalkers (1990) (USA) [NQ] [Download]

Order Vintagepornbay Premium to Get Access to Downloads for Porn Content
1 Star2 Stars3 Stars4 Stars5 Stars (No Ratings Yet)
Loading...
Hits: 234 views

Suzi and the Cop scene in a film directed by Steve Scott

Download and Watch This Porn Content Now

China and Silk (1984)
Sc.3 [per iafd]
Susan Hart
Harry Reems

mp4 / 103.04MB / 640x480 / 00:08:48 / Audio

'Although within the close confines of a car, Harry Reems and Susan Hart make it [the sex] work. Harry, even sticking his head through the sun roof to get it done!'

The beauty of Susan Hart in DVD quality is simply breathtaking! This scene and Scene 5 (with Debbie Northrup, Gina Carrera, Bill Malibu and Peter North) again demonstrate her obvious enthusiasm for fellatio.

>>Watch or Download>> Suzi and the Cop scene in a film directed by Steve Scott

Order Vintagepornbay Premium to Get Access to Downloads for Porn Content
1 Star2 Stars3 Stars4 Stars5 Stars (1 votes, average: 4.00 out of 5)
Loading...
Hits: 178 views

Bun For The Money (1990) (USA) [Download]

Download and Watch This Porn Content Now

Details:

Complete name : Bun For The Money (1990) (Jessica Bogart; Dusty; Ashlyn Gere) zzzcap.mp4
Format : MPEG-4
Format profile : Base Media
Codec ID : isom (isom/avc1)
File size : 873 MiB
Duration : 1 h 30 min
Overall bit rate mode : Variable
Overall bit rate : 1 345 kb/s
Encoded date : UTC 2017-06-22 15:59:37
Tagged date : UTC 2017-06-22 15:59:37

Video
ID : 1
Format : AVC
Format/Info : Advanced Video Codec
Format profile : [email protected]
Format settings : CABAC / 5 Ref Frames
Format settings, CABAC : Yes
Format settings, RefFrames : 5 frames
Codec ID : avc1
Codec ID/Info : Advanced Video Coding
Duration : 1 h 30 min
Bit rate : 1 259 kb/s
Maximum bit rate : 2 696 kb/s
Width : 640 pixels
Height : 480 pixels
Display aspect ratio : 4:3
Frame rate mode : Constant
Frame rate : 29.970 (29970/1000) FPS
Color space : YUV
Chroma subsampling : 4:2:0
Bit depth : 8 bits
Scan type : Progressive
Bits/(Pixel*Frame) : 0.137
Stream size : 817 MiB (94%)
Writing library : x264 core 125 r2200 999b753

>>Watch or Download>> Bun For The Money (1990) (USA) [Download]

Order Vintagepornbay Premium to Get Access to Downloads for Porn Content
1 Star2 Stars3 Stars4 Stars5 Stars (No Ratings Yet)
Loading...
Hits: 184 views

1-on-1 scene with Debbie van Gild in ‘Bordsteinschwalben’

Download and Watch This Porn Content Now

Here is a 1-on-1 scene with Debbie van Gild in 'Bordsteinschwalben'

>>Watch or Download>> 1-on-1 scene with Debbie van Gild in ‘Bordsteinschwalben’

Order Vintagepornbay Premium to Get Access to Downloads for Porn Content
1 Star2 Stars3 Stars4 Stars5 Stars (1 votes, average: 5.00 out of 5)
Loading...
Hits: 283 views

Bubble Butts 16 (1992) (US) [VOD] [Download]

Download and Watch This Porn Content Now

Bubble Butts 16 (1992)
Lacy Rose
Sharon Mitchell [Anal]
Sunset Thomas [Anal]

Details:

Complete name : Bubble Butts #16 (1992) (Lacy Rose; Sharon Mitchell; Sunset Thomas) zzzcap.mp4
Format : MPEG-4
Format profile : Base Media
Codec ID : isom (isom/avc1)
File size : 1.46 GiB
Duration : 1 h 22 min
Overall bit rate mode : Variable
Overall bit rate : 2 541 kb/s
Encoded date : UTC 2012-08-19 17:43:57
Tagged date : UTC 2012-08-19 17:43:57

Video
ID : 1
Format : AVC
Format/Info : Advanced Video Codec
Format profile : [email protected]
Format settings : CABAC / 4 Ref Frames
Format settings, CABAC : Yes
Format settings, RefFrames : 4 frames
Codec ID : avc1
Codec ID/Info : Advanced Video Coding
Duration : 1 h 22 min
Bit rate : 2 454 kb/s
Maximum bit rate : 6 708 kb/s
Width : 576 pixels
Height : 432 pixels
Display aspect ratio : 4:3
Frame rate mode : Constant
Frame rate : 29.970 (29970/1000) FPS
Color space : YUV
Chroma subsampling : 4:2:0
Bit depth : 8 bits
Scan type : Progressive
Bits/(Pixel*Frame) : 0.329
Stream size : 1.41 GiB (97%)
Writing library : x264 core 125 r2200 999b753

>>Watch or Download>> Bubble Butts 16 (1992) (US) [VOD] [Download]

Order Vintagepornbay Premium to Get Access to Downloads for Porn Content
1 Star2 Stars3 Stars4 Stars5 Stars (No Ratings Yet)
Loading...
Hits: 325 views

Raunch-o-rama Super Six Hour 3: Christy Canyon (1995) (USA) [Download]

Download and Watch This Porn Content Now

Note: Compilation. Six hours of Christy Canyon action

Video File:
3.43 GB
05:46:48
640 x 472
29.970 fps
MKV

>>Watch or Download>> Raunch-o-rama Super Six Hour 3: Christy Canyon (1995) (USA) [Download]

Order Vintagepornbay Premium to Get Access to Downloads for Porn Content
1 Star2 Stars3 Stars4 Stars5 Stars (1 votes, average: 5.00 out of 5)
Loading...
Hits: 373 views

Where the Boys Aren’t 6 (US) (1995) (High Quality) DVD5+AVI [Download]

Download and Watch This Porn Content Now

Download Where the Boys Aren't 6 (1995) DVD5 + AVI Vintage Porn Movie in High Quality:

As always user friendly links .Without enormous DL time (~ 15 hrs per file for free users) and DL speed 30 kb/s.

Cast: Amber Lynn, Christy Canyon, Janine, Jeanna Fine, Julia Ann, Sarah Jane Hamilton, Sindee Coxx

Description: It used to be a men's club. But now it's all women, doing what women will do when they're relaxed, at ease, and into other women. It's WBA 6, featuring the return of Amber! The return of Christy! And Janine! In the all-star, all girl romp of all time. Are you all-man enough?

Scene Breakdowns

Scene 1. Janine, Jeanna Fine, Julia Ann
Scene 2. Amber Lynn, Christy Canyon, Janine, Julia Ann
Scene 3. Julia Ann, Sindee Coxx
Scene 4. Sarah Jane Hamilton, Sindee Coxx
Scene 5. Amber Lynn, Christy Canyon, Janine, Jeanna Fine, Sarah Jane Hamilton

3.98 GB
01:09:55
720 x 480
29.970 fps
VOB

>>Watch or Download>> Where the Boys Aren’t 6 (US) (1995) (High Quality) DVD5+AVI [Download]

Order Vintagepornbay Premium to Get Access to Downloads for Porn Content