Page 1 of 249123...102030...Last »
1 Star2 Stars3 Stars4 Stars5 Stars (No Ratings Yet)
Loading...
Hits: 18 views

Occhi famelici aka Hungry Eyes (Italian) [Download]

Download and Watch This Porn Content Now

This is the Italian dubbed version, the quality is not the better, but it's the only one we can offer.

Format: mp4
Size: 684 Mb
Resol: 720x576
Length: 83 min.
Lang: Italian
Quality: Acceptable with some troubles.

Cast from Egafd:

Females:

  • Fatima Choplin as Fatima Choplain
  • Francoise Gaterie
  • Isabelle Allay
  • Isabelle [12] ? as Francoise Gaterie, Nathalie Etoile or Patty Rubis
  • Nathalie Etoile
  • Patty Rubis
  • Sandrine Sufne as Sandrine Suave

Males:

  • Christophe Clark as Christoph Clark
  • Jean-Pierre Armand
  • Philippe Soine

>>Watch or Download>> Occhi famelici aka Hungry Eyes (Italian) [Download]

Order Vintagepornbay Premium to Get Access to Downloads for Porn Content
1 Star2 Stars3 Stars4 Stars5 Stars (No Ratings Yet)
Loading...
Hits: 60 views

Kelly Jaye – Close Up (1994) [Download]

Download and Watch This Porn Content Now

Details:

Complete name : Kelly Close-Up (1994) (Kelly Jaye, Shelby Stevens, Vicoria Andrews).avi
Format : AVI
Format/Info : Audio Video Interleave
File size : 700 MiB
Duration : 1h 19mn
Overall bit rate : 1 227 Kbps
Writing application : VirtualDubMod 1.5.10.1 (build 2519/release)
Writing library : VirtualDubMod build 2519/release

Video
ID : 0
Format : MPEG-4 Visual
Format profile : Advanced [email protected]
Format settings, BVOP : 1
Format settings, QPel : No
Format settings, GMC : No warppoints
Format settings, Matrix : Custom
Codec ID : XVID
Codec ID/Hint : XviD
Duration : 1h 19mn
Bit rate : 1 028 Kbps
Width : 496 pixels
Height : 368 pixels
Display aspect ratio : 4:3
Frame rate : 29.970 fps
Color space : YUV
Chroma subsampling : 4:2:0
Bit depth : 8 bits
Scan type : Progressive
Compression mode : Lossy
Bits/(Pixel*Frame) : 0.188
Stream size : 586 MiB (84%)
Writing library : XviD 1.2.0SMP (UTC 2006-01-08)

Notes: Dubious quality.

>>Watch or Download>> Kelly Jaye – Close Up (1994) [Download]

Order Vintagepornbay Premium to Get Access to Downloads for Porn Content
1 Star2 Stars3 Stars4 Stars5 Stars (No Ratings Yet)
Loading...
Hits: 101 views

Butts Motel 6 (1994) [HQ] [Download]

Download and Watch This Porn Content Now

Details:

Complete name : Butts Motel #6 (1994) (Heather Lee; Beatrice Valle; Sarah Jane Hamilton; Nikki Sinn) zzzcap.mp4
Format : MPEG-4
Format profile : Base Media
Codec ID : isom (isom/avc1)
File size : 1.24 GiB
Duration : 1 h 23 min
Overall bit rate mode : Variable
Overall bit rate : 2 110 kb/s
Encoded date : UTC 2014-10-07 19:09:50
Tagged date : UTC 2014-10-07 19:09:50

Video
ID : 1
Format : AVC
Format/Info : Advanced Video Codec
Format profile : [email protected]
Format settings : CABAC / 8 Ref Frames
Format settings, CABAC : Yes
Format settings, RefFrames : 8 frames
Codec ID : avc1
Codec ID/Info : Advanced Video Coding
Duration : 1 h 23 min
Bit rate : 2 022 kb/s
Maximum bit rate : 4 116 kb/s
Width : 640 pixels
Height : 480 pixels
Display aspect ratio : 4:3
Frame rate mode : Constant
Frame rate : 29.970 (29970/1000) FPS
Color space : YUV
Chroma subsampling : 4:2:0
Bit depth : 8 bits
Scan type : Progressive
Bits/(Pixel*Frame) : 0.220
Stream size : 1.19 GiB (96%)

>>Watch or Download>> Butts Motel 6 (1994) [HQ] [Download]

Order Vintagepornbay Premium to Get Access to Downloads for Porn Content
1 Star2 Stars3 Stars4 Stars5 Stars (No Ratings Yet)
Loading...
Hits: 205 views

Women’s Desires (1984) – [Bizarre Video] [HQ] [Download]

Download and Watch This Porn Content Now

We cropped and cleaned the stream version of the vid, also removing alot of bad frames and static between scenes, and the results are better compared to the original version.

Running Time:
51:24

Starring: 
Eleyna, Lilly, Danica Rhae

Description:
There’s always some frantic fun going on when Danica unleashes her pent-up desires for another woman. Her urge for female companionship is so strong that she calls up her girlfriends to help give her the erotic relief she needs so badly! Cum join the party and find out what goes on behind closed doors in this fabulous lezbosique of feminine friendship as she guides her two friends into the perils of Sapphic passion and erotic lust. Danika Rhae stars in this genuine girl-girl montage and she’s not about to let either of them get away without first receiving total satisfaction... and then giving some of her own

Format: avi
Size: 602,06 Mb
Resol: 620x470
Length: 00:51:24
Lang: English
Quality: Quite good

Credits as above
>>Watch or Download>> Women’s Desires (1984) – [Bizarre Video] [HQ] [Download]

Order Vintagepornbay Premium to Get Access to Downloads for Porn Content
1 Star2 Stars3 Stars4 Stars5 Stars (No Ratings Yet)
Loading...
Hits: 100 views

Barenstark (1998) (Deutsche) – VTO [High Quality] [Download]

Download and Watch This Porn Content Now

Simply the DVD released after 1997 material one compilation was "originally released before then".
For this one it's the case because the beautiful Hellena Mykenos was an actress of 1992 to 1993 (and for information with the case or Lady Berlin: 1992-1996).

Cast ao.
Sandra aka Miss Pomodoro
Judith Belfort
Kelly Trump + Pattie
Hellena Mykenos

Jerry Butler
Rocco Siffredi
Joe Kalinka
Ray Victory
Steve Vincent
Sean Michaels

Cast: Sandra, Judith Belfort, Kelly Trump, Pattie, Hellena Mykenos, Jerry Butler, Rocco Siffredi, Joe Kalinka, Ray Victory, Steve Vincent, Sean Michaels

Format: wmv
Size: 711 Mb
Resol: 768x576
Lang: German
Length: 01:28:12
Quality: Pretty good for images, acceptable for sound

Credits as above.

>>Watch or Download>> Barenstark (1998) (Deutsche) – VTO [High Quality] [Download]

Order Vintagepornbay Premium to Get Access to Downloads for Porn Content
1 Star2 Stars3 Stars4 Stars5 Stars (1 votes, average: 3.00 out of 5)
Loading...
Hits: 160 views

Lady Sex (aka Il Mondo porno di due sorelle) (1978) [VHS] [Download]

Download and Watch This Porn Content Now

So here it is, the hardcore version of the soft version:

It took us 3 days to fix all the rolling screens and glitches on this old vhs tape while using a 10 year old VCR.

So We ended up recording the movie in 4 separate pieces and then combined the whole lot to one full movie. You'll notice this when you look at it, @ min 57:00 there is a small overlapping, then 2 or 3 times more.

I know it's not that great quality but still the HC version, Enjoy !!

VHS rip, german dubbed language.

>>Watch or Download>> Lady Sex (aka Il Mondo porno di due sorelle) (1978) [VHS] [Download]

Order Vintagepornbay Premium to Get Access to Downloads for Porn Content
1 Star2 Stars3 Stars4 Stars5 Stars (1 votes, average: 4.00 out of 5)
Loading...
Hits: 148 views

Roxy Virgin on the Run (1991) (UK) [High Quality] [Download]

Download and Watch This Porn Content Now

Cute and blonde, Savannah is a Barbie Doll and she is malleable in a man's hands just like a doll.

Buck plays a retiredboxer. Jeanna is Buck's girlfriend. Rachel is Buck's biographer. Mike is Rachel's boyfriend and Jeanna's therapist. Taylor is sculpting a model of Savannah out of clay. Savannah gets a job as a temp typist for Rachel, because Marc (her boyfriend) took all of her money to gamble.

Jeanna Fine
Rachel Ryan
Savannah
Taylor Wane
Buck Adams
Marc Wallice
Mike Horner

Scene 1. Jeanna Fine, Buck Adams
Scene 2. Rachel Ryan, Mike Horner
Scene 3. Savannah, Taylor Wane
Scene 4. Savannah, Buck Adams
Scene 5. Jeanna Fine, Marc Wallice
Scene 6. Rachel Ryan, Savannah

This VHS rip is a homemade rip from a tape coming from UK, before legalization of hardcore, so it means no dicks, pussy or cum. Though the sex isn’t simulated, it is a softcore version of the movie. Anybody having an orginal VHS of the hardcore version can contact me by private message. (full movie softcore or hardcore is not available on the net)

Format: avi
Size: 710 Mb
Resol: 352x288
Duration: 01:17:17
Lang: English
Quality: Good

Credits as above.

>>Watch or Download>> Roxy Virgin on the Run (1991) (UK) [High Quality] [Download]

Order Vintagepornbay Premium to Get Access to Downloads for Porn Content