Member Login Get Access

Hits: 308,485 views
1 Star2 Stars3 Stars4 Stars5 Stars (452 votes, average: 4.45 out of 5)
Loading...

Vintagepornbay & Tube

Premium Membership grant you to access locked content, download links, special video/image, digital media, full clips, adult streaming and rare content with ads-free surfing on Vintagepornbay & Tube.
>>Watch or Download>> Vintagepornbay & Tube

Hits: 14 views
1 Star2 Stars3 Stars4 Stars5 Stars (No Ratings Yet)
Loading...

The House of Kinky Pleasures (1975) [Download]

Download and Watch This Porn Content Now

File: 1.12 GB
Type: AVI
Duration: 00:54:31
Video: 640 x 464, XviD ISO MPEG-4, 23.976 fps, 2679 kbps, 0.376 bit/pixel
Audio: AC3, 48000Hz, 256 kb/s, stereo (2/0)

>>Watch or Download>> The House of Kinky Pleasures (1975) [Download]

Order Vintagepornbay Premium to Get Access to Downloads for Porn Content
Hits: 8 views
1 Star2 Stars3 Stars4 Stars5 Stars (No Ratings Yet)
Loading...

Boobcage 2 (1998) [DVD5] [HQ] [ISO] [Download]

Download and Watch This Porn Content Now

Scene Breakdowns

Scene 1. Minka, Nick East
Scene 2. Penelope Pumpkins, Earl Slate
Scene 3. Spantaneeus Xtasty, Mark Davis
Scene 4. Brittany O'Neil, Frank Towers

DVD5
3.93 GB
01:21:40
720 x 480
29.970
VOB [Original ISO]

>>Watch or Download>> Boobcage 2 (1998) [DVD5] [HQ] [ISO] [Download]

Order Vintagepornbay Premium to Get Access to Downloads for Porn Content
Hits: 41 views
1 Star2 Stars3 Stars4 Stars5 Stars (No Ratings Yet)
Loading...

Star Angel (1986) (German) [Download]

Download and Watch This Porn Content Now

Year : 1986
Distributor: Command Video
Language : English
File : .avi
File size : 702 MB
Resolution : 640x480
Duration : 01:14:04
Quality : VHS>DVD>DivX. Not perfect but watchable
Director : Cecil Howard.
Producers :
Cecil Howard ... producer
Anne Randall ... associate producer

Movie Description :
"When Luke Frame's rock star wife dies of a d**g ove**ose, he misses her. So much, that he can't forget her. Why? Because he was the cause that led to her death. Images of his wife continue to run through his head until he meets Terry. Terry is an aspiring singer that comforts him & helps him recover."

Starring :
Jerry Butler ... Luke Frame
Angel ... Terry
Tigr (as Chelsea Manchester) ... Lola Rain
Colleen Brennan ... Kate Fredericks
Taija Rae ... Franny
Ron Jeremy ... Mario
Marita Ekberg ... Acacia
Tammy (as Tammy Lamb) ... Phoebe (archive footage)
Jose Duval ... Johnny
Frank Serrone (as Frank Serronne) ... Clip
Cecil Howard (as Ward Summers) ... Highway Bob

Scene Breakdowns

Scene 1Jerry Butler, Tigr
Scene 2
Ron Jeremy, Tammy[a clip from "Scoundrels"]
Scene 3
Taija Rae
Scene 4
Angel, Colleen Brennan
Scene 5.
 Ron Jeremy, Taija Rae
Scene 6
Colleen Brennan, Jerry Butler
Scene 7. Frank Serrone, Jose Duval, Marita Ekberg, Tigr
Scene 8Angel, Jerry Butler [Scenes 8 and 9 are intercut]
Scene 9
Jerry Butler, Tigr

>>Watch or Download>> Star Angel (1986) (German) [Download]

Order Vintagepornbay Premium to Get Access to Downloads for Porn Content
Hits: 77 views
1 Star2 Stars3 Stars4 Stars5 Stars (No Ratings Yet)
Loading...

Babylon Blue (1983) – [upgrade] [HQ] [Download]

Download and Watch This Porn Content Now

From the VOBs posted to usenet, which were ripped from the Video X Pix DVD.

Encoded with x264 and deinterlaced with QTGMC, both at "very slow" preset (= high quality).

Download

MKV/x264 -- 644 MB -- 01:13:53 -- 704x480 -- English audio

Babylon Blue (1983)

Distributor: Video-X-Pix
Director: Henri Pachard (as Jackson St. Louis)
Minutes: 74

Actresses
Alexis X
Bridgette Monet (as Bridget Monet) [Facial]
Jacqueline Lorians (as Jacqueline Loriens)
Joanna Storm
Sharon Kane
Tish Ambrose

Actors
Alan Adrian
David Cannon
Joey Silvera
Michael Bruce

NonSex Performers
Henri Pachard
Michael Gaunt

Comments
•East coast (NYC) production

Scene Breakdowns
Scene 1. Joanna Storm, Joey Silvera
Scene 2. Jacqueline Lorians, Joey Silvera
Scene 3. Bridgette Monet, David Cannon
Scene 4. Sharon Kane, Alan Adrian
Scene 5. Alexis X, Joey Silvera
Scene 6. Joanna Storm, Tish Ambrose, Michael Bruce
Scene 7. Bridgette Monet, David Cannon
Scene 8. Sharon Kane, Joey Silvera

>>Watch or Download>> Babylon Blue (1983) – [upgrade] [HQ] [Download]

Order Vintagepornbay Premium to Get Access to Downloads for Porn Content
Hits: 49 views
1 Star2 Stars3 Stars4 Stars5 Stars (No Ratings Yet)
Loading...

Shades of Lust (USA) [DVD5] [HQ] [Download]

Download and Watch This Porn Content Now

Shades of Lust (1993) dvd5

PAL 4:3 (720x576) VBR
Russian (Dolby AC3, 2 ch)
usa
audio Russian
3.96 GB

Alex Sanders, Corby Wells, Krista, Lynden Johnson, Marc Wallice, Paul Coxxx, Sahara Sands, TT Boy

>>Watch or Download>> Shades of Lust (USA) [DVD5] [HQ] [Download]

Order Vintagepornbay Premium to Get Access to Downloads for Porn Content
Hits: 74 views
1 Star2 Stars3 Stars4 Stars5 Stars (No Ratings Yet)
Loading...

Leena Is Nasty (1994) (USA) [Watch & Download]

Download and Watch This Porn Content Now

Details:

Complete name : Leena Is Nasty (1994) (Kaitlyn Ashley, Leena, Bianca Trump, Jasper, Chayse Manhattan, Kylie Ireland, Misty Rain) K-Rip.mp4
Format : MPEG-4
Format profile : Base Media
Codec ID : isom (isom/avc1)
File size : 967 MiB
Duration : 1 h 26 min
Overall bit rate mode : Variable
Overall bit rate : 1 566 kb/s
Encoded date : UTC 2018-07-11 14:13:23
Tagged date : UTC 2018-07-11 14:13:23

Video
ID : 1
Format : AVC
Format/Info : Advanced Video Codec
Format profile : [email protected]
Format settings : CABAC / 5 Ref Frames
Format settings, CABAC : Yes
Format settings, RefFrames : 5 frames
Codec ID : avc1
Codec ID/Info : Advanced Video Coding
Duration : 1 h 26 min
Bit rate : 1 368 kb/s
Maximum bit rate : 14.9 Mb/s
Width : 640 pixels
Height : 432 pixels
Display aspect ratio : 4:3
Frame rate mode : Constant
Frame rate : 29.970 (30000/1001) FPS
Color space : YUV
Chroma subsampling : 4:2:0
Bit depth : 8 bits
Scan type : Progressive
Bits/(Pixel*Frame) : 0.165
Stream size : 845 MiB (87%)
Writing library : x264 core 155 r2901 7d0ff22

Audio
ID : 2
Format : AAC
Format/Info : Advanced Audio Codec
Format profile : LC
Codec ID : mp4a-40-2
Duration : 1 h 26 min
Bit rate mode : Variable
Bit rate : 192 kb/s
Maximum bit rate : 212 kb/s
Channel(s) : 2 channels
Channel positions : Front: L R
Sampling rate : 48.0 kHz
Frame rate : 46.875 FPS (1024 SPF)
Compression mode : Lossy
Stream size : 119 MiB (12%)
Encoded date : UTC 2018-07-11 13:03:47
Tagged date : UTC 2018-07-11 14:13:32

>>Watch or Download>> Leena Is Nasty (1994) (USA) [Watch & Download]

Order Vintagepornbay Premium to Get Access to Downloads for Porn Content
Hits: 81 views
1 Star2 Stars3 Stars4 Stars5 Stars (No Ratings Yet)
Loading...

Intensive Care (1974) [HD] [720p] [Download]

Download and Watch This Porn Content Now

Cast: Bobby Astyr, Darby Lloyd Rains, Don Allen, Harry Reems
Director(s): David Sear
Studio: Vinegar Syndrome

Description: Harry Reems shines in this delightful comedy as Dr. Scrotum. He along with his nurse try to solve all manner of sexual ailments. He even tries to use his skills to raise the dead!

File Size : 2861.82 MB
Resolution : 1280x720
Duration : 01:21:58
Video : AVC (AVC), 4 750 Kbps, 23.976 fps

>>Watch or Download>> Intensive Care (1974) [HD] [720p] [Download]

Order Vintagepornbay Premium to Get Access to Downloads for Porn Content


JUST FOR 18+ and MEMBERS!

Get access to Vintagepornbay

Enter ONLY if you are 18 (or 21 for some states) years of age or older.

2014 - 2019 © VPBay Adult Media Entertainment.

Pricing Tube XTube Milf Vidz Cams Privacy Policy 2257