Real Sex Magazine 6 (1997) (USA) (Rare) [Watch & Download]

Details:

Complete name : Real Sex Magazine #06 (1997) (Teri Starr, Leanni Lei, Susie, Bobbie Rae) ! K-Rip.mp4
Format : MPEG-4
Format profile : Base Media
Codec ID : isom (isom/avc1)
File size : 954 MiB
Duration : 1 h 29 min
Overall bit rate mode : Variable
Overall bit rate : 1 494 kb/s
Encoded date : UTC 2018-11-14 04:47:04
Tagged date : UTC 2018-11-14 04:47:04

Video
ID : 1
Format : AVC
Format/Info : Advanced Video Codec
Format profile : [email protected]
Format settings : CABAC / 5 Ref Frames
Format settings, CABAC : Yes
Format settings, RefFrames : 5 frames
Codec ID : avc1
Codec ID/Info : Advanced Video Coding
Duration : 1 h 29 min
Bit rate : 1 348 kb/s
Maximum bit rate : 3 300 kb/s
Width : 640 pixels
Height : 432 pixels
Display aspect ratio : 4:3
Original display aspect ratio : 4:3
Frame rate mode : Constant
Frame rate : 29.970 (30000/1001) FPS
Color space : YUV
Chroma subsampling : 4:2:0
Bit depth : 8 bits
Scan type : Progressive
Bits/(Pixel*Frame) : 0.163
Stream size : 861 MiB (90%)
Writing library : x264 core 155 r2901 7d0ff22

Codec configuration box : avcC

Audio
ID : 2
Format : AAC LC
Format/Info : Advanced Audio Codec Low Complexity
Codec ID : mp4a-40-2
Duration : 1 h 29 min
Bit rate mode : Variable
Bit rate : 144 kb/s
Maximum bit rate : 194 kb/s
Channel(s) : 2 channels
Channel layout : L R
Sampling rate : 48.0 kHz
Frame rate : 46.875 FPS (1024 SPF)
Compression mode : Lossy
Stream size : 90.3 MiB (9%)
Encoded date : UTC 2018-11-14 03:29:44
Tagged date : UTC 2018-11-14 04:47:33

Continue reading Real Sex Magazine 6 (1997) (USA) (Rare) [Watch & Download]

The Joys Of Sec’s (1989) (USA)

The Joys Of Sec's* (1989-Video Exclusives/Leisure Time)
*-boxcover says "The Joy Of Sec's", while the opening credits say "The Joys Of Sec's", as does iafd.com.

Cast: Gail , Dana Lynn, Tracey Adams, Kim Alexis (boxcover credited as Toni Christian; opening credits as Kim Acosta), Alexa Parks, Jon Dough (boxcover credited as Jan Sanders; opening credits as Chet Sanders), Ray Victory, Frank James, Jesse Eastern & Ron Jeremy (non-sex).

Director (and Writer): Ron Jeremy (using the noms de porn of "Bill Blackman", and "David Elliot", for director and writer, respectively). We also believe he is "Mark Curtis" (the producer), as Mark Curtis seems to produce all of these Bill Blackman/Ron Jeremy flicks.

Video: MP4 (AVC)
Size: 1.27 GB
Resolution: 624x480
Duration: 1:11:38~71 minutes
Source: VHS

 

Continue reading The Joys Of Sec’s (1989) (USA)

Riley Steele: Love Fool (2010) [1080p] [HD]

Details:

Complete name : Riley Steele, Love Fool (2010) (Dani Jensen, Riley Steele, Sindee Jennings, Tori Black) 1080p.mkv
Format : Matroska
Format version : Version 2
File size : 4.38 GiB
Duration : 1 h 22 min
Overall bit rate : 7 547 kb/s
Writing application : mkvmerge v3.2.0 ('Beginnings') built on Feb 12 2010 16:46:17
Writing library : libebml v0.7.9 + libmatroska v0.8.1

Video
ID : 1
Format : AVC
Format/Info : Advanced Video Codec
Format profile : [email protected]
Format settings : CABAC / 5 Ref Frames
Format settings, CABAC : Yes
Format settings, RefFrames : 5 frames
Codec ID : V_MPEG4/ISO/AVC
Duration : 1 h 22 min
Bit rate : 7 098 kb/s
Width : 1 920 pixels
Height : 1 080 pixels
Display aspect ratio : 16:9
Frame rate mode : Constant
Frame rate : 23.976 FPS
Color space : YUV
Chroma subsampling : 4:2:0
Bit depth : 8 bits
Scan type : Progressive
Bits/(Pixel*Frame) : 0.143
Stream size : 4.03 GiB (92%)
Writing library : x264 core 80 r1376M 3feaec2

Language : English

Audio
ID : 2
Format : AC-3
Format/Info : Audio Coding 3
Commercial name : Dolby Digital
Codec ID : A_AC3
Duration : 1 h 22 min
Bit rate mode : Constant
Bit rate : 448 kb/s
Channel(s) : 6 channels
Channel layout : L R C LFE Ls Rs
Sampling rate : 48.0 kHz
Frame rate : 31.250 FPS (1536 SPF)
Bit depth : 16 bits
Compression mode : Lossy
Stream size : 266 MiB (6%)
Language : English
Service kind : Complete Main
Default : Yes Continue reading Riley Steele: Love Fool (2010) [1080p] [HD]

Spermagierige Abtrinkerinnen (2007) (Deutsche)

cast
Females: Sidney Dark, Vivian Schmitt (Anna B.), Sexy Susi, Kira Red,
Males: Stefan Mänzel, Markus Waxenegger, a.o.

The movie „Spermagierige Abtrinkerinnen" (Cat.No. 60782) was released by Puaka on 09.03.2007, but most scenes were shot between 2002 and 2003. German language.

run time: 76:26 min | filesize: 880 MB | res. 684 × 528 | format: mp4 | average quality rip

Continue reading Spermagierige Abtrinkerinnen (2007) (Deutsche)