Page 1 of 4123...Last »
1 Star2 Stars3 Stars4 Stars5 Stars (No Ratings Yet)
Loading...
Hits: 38 views

Kelly Jaye – Close Up (1994) [Download]

Download and Watch This Porn Content Now

Details:

Complete name : Kelly Close-Up (1994) (Kelly Jaye, Shelby Stevens, Vicoria Andrews).avi
Format : AVI
Format/Info : Audio Video Interleave
File size : 700 MiB
Duration : 1h 19mn
Overall bit rate : 1 227 Kbps
Writing application : VirtualDubMod 1.5.10.1 (build 2519/release)
Writing library : VirtualDubMod build 2519/release

Video
ID : 0
Format : MPEG-4 Visual
Format profile : Advanced [email protected]
Format settings, BVOP : 1
Format settings, QPel : No
Format settings, GMC : No warppoints
Format settings, Matrix : Custom
Codec ID : XVID
Codec ID/Hint : XviD
Duration : 1h 19mn
Bit rate : 1 028 Kbps
Width : 496 pixels
Height : 368 pixels
Display aspect ratio : 4:3
Frame rate : 29.970 fps
Color space : YUV
Chroma subsampling : 4:2:0
Bit depth : 8 bits
Scan type : Progressive
Compression mode : Lossy
Bits/(Pixel*Frame) : 0.188
Stream size : 586 MiB (84%)
Writing library : XviD 1.2.0SMP (UTC 2006-01-08)

Notes: Dubious quality.

>>Watch or Download>> Kelly Jaye – Close Up (1994) [Download]

Order Vintagepornbay Premium to Get Access to Downloads for Porn Content
1 Star2 Stars3 Stars4 Stars5 Stars (No Ratings Yet)
Loading...
Hits: 83 views

Butts Motel 6 (1994) [HQ] [Download]

Download and Watch This Porn Content Now

Details:

Complete name : Butts Motel #6 (1994) (Heather Lee; Beatrice Valle; Sarah Jane Hamilton; Nikki Sinn) zzzcap.mp4
Format : MPEG-4
Format profile : Base Media
Codec ID : isom (isom/avc1)
File size : 1.24 GiB
Duration : 1 h 23 min
Overall bit rate mode : Variable
Overall bit rate : 2 110 kb/s
Encoded date : UTC 2014-10-07 19:09:50
Tagged date : UTC 2014-10-07 19:09:50

Video
ID : 1
Format : AVC
Format/Info : Advanced Video Codec
Format profile : [email protected]
Format settings : CABAC / 8 Ref Frames
Format settings, CABAC : Yes
Format settings, RefFrames : 8 frames
Codec ID : avc1
Codec ID/Info : Advanced Video Coding
Duration : 1 h 23 min
Bit rate : 2 022 kb/s
Maximum bit rate : 4 116 kb/s
Width : 640 pixels
Height : 480 pixels
Display aspect ratio : 4:3
Frame rate mode : Constant
Frame rate : 29.970 (29970/1000) FPS
Color space : YUV
Chroma subsampling : 4:2:0
Bit depth : 8 bits
Scan type : Progressive
Bits/(Pixel*Frame) : 0.220
Stream size : 1.19 GiB (96%)

>>Watch or Download>> Butts Motel 6 (1994) [HQ] [Download]

Order Vintagepornbay Premium to Get Access to Downloads for Porn Content
1 Star2 Stars3 Stars4 Stars5 Stars (No Ratings Yet)
Loading...
Hits: 185 views

Women’s Desires (1984) – [Bizarre Video] [HQ] [Download]

Download and Watch This Porn Content Now

We cropped and cleaned the stream version of the vid, also removing alot of bad frames and static between scenes, and the results are better compared to the original version.

Running Time:
51:24

Starring: 
Eleyna, Lilly, Danica Rhae

Description:
There’s always some frantic fun going on when Danica unleashes her pent-up desires for another woman. Her urge for female companionship is so strong that she calls up her girlfriends to help give her the erotic relief she needs so badly! Cum join the party and find out what goes on behind closed doors in this fabulous lezbosique of feminine friendship as she guides her two friends into the perils of Sapphic passion and erotic lust. Danika Rhae stars in this genuine girl-girl montage and she’s not about to let either of them get away without first receiving total satisfaction... and then giving some of her own

Format: avi
Size: 602,06 Mb
Resol: 620x470
Length: 00:51:24
Lang: English
Quality: Quite good

Credits as above
>>Watch or Download>> Women’s Desires (1984) – [Bizarre Video] [HQ] [Download]

Order Vintagepornbay Premium to Get Access to Downloads for Porn Content
1 Star2 Stars3 Stars4 Stars5 Stars (No Ratings Yet)
Loading...
Hits: 87 views

Barenstark (1998) (Deutsche) – VTO [High Quality] [Download]

Download and Watch This Porn Content Now

Simply the DVD released after 1997 material one compilation was "originally released before then".
For this one it's the case because the beautiful Hellena Mykenos was an actress of 1992 to 1993 (and for information with the case or Lady Berlin: 1992-1996).

Cast ao.
Sandra aka Miss Pomodoro
Judith Belfort
Kelly Trump + Pattie
Hellena Mykenos

Jerry Butler
Rocco Siffredi
Joe Kalinka
Ray Victory
Steve Vincent
Sean Michaels

Cast: Sandra, Judith Belfort, Kelly Trump, Pattie, Hellena Mykenos, Jerry Butler, Rocco Siffredi, Joe Kalinka, Ray Victory, Steve Vincent, Sean Michaels

Format: wmv
Size: 711 Mb
Resol: 768x576
Lang: German
Length: 01:28:12
Quality: Pretty good for images, acceptable for sound

Credits as above.

>>Watch or Download>> Barenstark (1998) (Deutsche) – VTO [High Quality] [Download]

Order Vintagepornbay Premium to Get Access to Downloads for Porn Content