Hits: 69 views
1 Star2 Stars3 Stars4 Stars5 Stars (No Ratings Yet)
Loading...

Anissa et Lola à l’école des infirmières (2014) [HD] [720p] [Watch & Download]

Download and Watch This Porn Content Now

Anissa et Lola à l'école des infirmières (2014)
HD resolution file
Release Date: 2004 
Studio: Marc Dorcel 
Starring: James Brossman, Nesty, Mr. Clark, Mugur, Anissa Kate, Lola Reve, Markus Dupree, Vanda Lust, Kiara Lord 

Scene Breakdowns
Scene 1. Lola Reve, Markus Dupree, Mugur
Scene 2. Kiara Lord, Renato
Scene 3. Anissa Kate, Nesty, Clark
Scene 4. Lola Reve, Vanda Lust, James Brossman
Scene 5. Anissa Kate, Mugur

Runtime: 01:33:21 
Format: MP4 
Video: AVC, YUV, 2758 kb/s,1280x720, 29.970 FPS 
Audio: AAC LC, 2 channels, 128 kb/s , 44.1 kHz 
Size: 1.89 GB 

>>Watch or Download>> Anissa et Lola à l’école des infirmières (2014) [HD] [720p] [Watch & Download]

Order Vintagepornbay Premium to Get Access to Downloads for Porn Content
Hits: 160 views
1 Star2 Stars3 Stars4 Stars5 Stars (No Ratings Yet)
Loading...

Vecchi Porcelloni (2010) (ITALY) [DVD5] [HQ] [Download] [3 Parts]

Download and Watch This Porn Content Now

File Name: Vecchi Porcelloni (2010)
Media Format: DVD5 1:1 (FULL)
Rar File: Folder
File Size: 3,29 GB
Resolution: 768X576
Run Time: 01:32:34
Language: Italian
Scenes Selection
Photo Gallery
Catalog
>>Watch or Download>> Vecchi Porcelloni (2010) (ITALY) [DVD5] [HQ] [Download] [3 Parts]

Order Vintagepornbay Premium to Get Access to Downloads for Porn Content
Hits: 256 views
1 Star2 Stars3 Stars4 Stars5 Stars (No Ratings Yet)
Loading...

Riley Steele: Love Fool (2010) [1080p] [HD]

Download and Watch This Porn Content Now

Details:

Complete name : Riley Steele, Love Fool (2010) (Dani Jensen, Riley Steele, Sindee Jennings, Tori Black) 1080p.mkv
Format : Matroska
Format version : Version 2
File size : 4.38 GiB
Duration : 1 h 22 min
Overall bit rate : 7 547 kb/s
Writing application : mkvmerge v3.2.0 ('Beginnings') built on Feb 12 2010 16:46:17
Writing library : libebml v0.7.9 + libmatroska v0.8.1

Video
ID : 1
Format : AVC
Format/Info : Advanced Video Codec
Format profile : [email protected]
Format settings : CABAC / 5 Ref Frames
Format settings, CABAC : Yes
Format settings, RefFrames : 5 frames
Codec ID : V_MPEG4/ISO/AVC
Duration : 1 h 22 min
Bit rate : 7 098 kb/s
Width : 1 920 pixels
Height : 1 080 pixels
Display aspect ratio : 16:9
Frame rate mode : Constant
Frame rate : 23.976 FPS
Color space : YUV
Chroma subsampling : 4:2:0
Bit depth : 8 bits
Scan type : Progressive
Bits/(Pixel*Frame) : 0.143
Stream size : 4.03 GiB (92%)
Writing library : x264 core 80 r1376M 3feaec2

Language : English

Audio
ID : 2
Format : AC-3
Format/Info : Audio Coding 3
Commercial name : Dolby Digital
Codec ID : A_AC3
Duration : 1 h 22 min
Bit rate mode : Constant
Bit rate : 448 kb/s
Channel(s) : 6 channels
Channel layout : L R C LFE Ls Rs
Sampling rate : 48.0 kHz
Frame rate : 31.250 FPS (1536 SPF)
Bit depth : 16 bits
Compression mode : Lossy
Stream size : 266 MiB (6%)
Language : English
Service kind : Complete Main
Default : Yes >>Watch or Download>> Riley Steele: Love Fool (2010) [1080p] [HD]

Order Vintagepornbay Premium to Get Access to Downloads for Porn Content
Hits: 193 views
1 Star2 Stars3 Stars4 Stars5 Stars (No Ratings Yet)
Loading...

MILFs Anthology (2014) [1080p] [HD] [5.64GB] [Download]

Download and Watch This Porn Content Now

Studio: Video Marc Dorcel
Language: English

Starring:
Elysee Paradise (as Clanddi Jinkcego)
Cristale Rock
Eva Karera
Franki
Holly Kiss
Jane Darling
Jessica Fiorentino
Jessyca Wilson
Lydia St. Martin
Victoria Blaze
Winnie

Ian Scott
James Brossman
Markus Dupree
Nacho Vidal
Vito Corleone

mp4 | 1920x1080 | 1 part | 5,64 GB | 03:18:41

>>Watch or Download>> MILFs Anthology (2014) [1080p] [HD] [5.64GB] [Download]

Order Vintagepornbay Premium to Get Access to Downloads for Porn Content
Hits: 300 views
1 Star2 Stars3 Stars4 Stars5 Stars (No Ratings Yet)
Loading...

Madame de bonplaisir (2010) (French) [Download]

Download and Watch This Porn Content Now

Madame de bonplaisir (2010)

Genre: Feature, Anal, DP
Cast: Alex, George Uhl, James Brossman, JPX, Kathy Sweet, Lea Magic, Madison Parker, Simone Style, Winnie
Director: Hervé Bodilis
Studio: Marc Dorcel

File Name: Madame de Bonplaisir
Runtime: 01:52:41.760
File Size: 705 MB
Resolution: 512x288
Video: MPEG-4 Visual, 737 Kbps, 25.000 fps
Audio: MPEG Audio (MPEG Audio Layer 3), 128 Kbps, 48.0 KHz, 2 channels

>>Watch or Download>> Madame de bonplaisir (2010) (French) [Download]

Order Vintagepornbay Premium to Get Access to Downloads for Porn Content
Hits: 309 views
1 Star2 Stars3 Stars4 Stars5 Stars (1 votes, average: 5.00 out of 5)
Loading...

Just Like Mom (2012) (USA) [1080p] [HD] [Download]

Download and Watch This Porn Content Now

Details:

Complete name : Just Like Mom (2012) (Riley Steele, Francesca Le, Ava Addams, Charley Chase) 1080p.mkv
Format : Matroska
Format version : Version 2
File size : 7.95 GiB
Duration : 1 h 57 min
Overall bit rate : 9 659 kb/s
Encoded date : UTC 2012-06-17 12:44:35
Writing application : mkvmerge v5.6.0 ('Kenya Kane')
Writing library : libebml v1.2.3 + libmatroska v1.3.0

Video
ID : 1
Format : AVC
Format/Info : Advanced Video Codec
Format profile : [email protected]
Format settings : CABAC / 4 Ref Frames
Format settings, CABAC : Yes
Format settings, RefFrames : 4 frames
Codec ID : V_MPEG4/ISO/AVC
Duration : 1 h 57 min
Bit rate : 9 018 kb/s
Width : 1 920 pixels
Height : 1 080 pixels
Display aspect ratio : 16:9
Frame rate mode : Constant
Frame rate : 23.976 (24000/1001) FPS
Color space : YUV
Chroma subsampling : 4:2:0
Bit depth : 8 bits
Scan type : Progressive
Bits/(Pixel*Frame) : 0.181
Stream size : 7.26 GiB (91%)
Writing library : x264 core 125 r2200 999b753

Language : English
Default : Yes
>>Watch or Download>> Just Like Mom (2012) (USA) [1080p] [HD] [Download]

Order Vintagepornbay Premium to Get Access to Downloads for Porn Content