Page 1 of 16123...10...Last »
1 Star2 Stars3 Stars4 Stars5 Stars (5 votes, average: 4.00 out of 5)
Loading...
Hits: 4,397 views

Father Wants to Watch Stepmom and Son Fucking

Download and Watch This Porn Content Now

Father Wants to Watch Stepmom and Son Fucking [videos.vintagepornbay.com] FULL VERSION: A forced Sex!

>>Watch or Download>> Father Wants to Watch Stepmom and Son Fucking

Order Vintagepornbay Premium to Get Access to Downloads for Porn Content
1 Star2 Stars3 Stars4 Stars5 Stars (No Ratings Yet)
Loading...
Hits: 398 views

I love lesbians three! (2000)

Download and Watch This Porn Content Now


Title: I love lesbians three!
Release: 2000
Stars: Charlie, Misty Rain, Stacy Valentine, Shane Tyler, Bridgette Belle, VixXxen, Missy, Tye Smith

File Name: [2000] I love lesbians three! - Stacy Valentine, Missy.mp4
File Size: 1602.49 MB
Resolution: 480x360
Duration: 2:11:58
Video: AVC (AVC), 1 500 Kbps, 23.976 (23976/1000) fps
Audio: AAC (AAC LC), 198 Kbps (VBR), 48.0 KHz, 2 channels, 1 stream

>>Watch or Download>> I love lesbians three! (2000)

Order Vintagepornbay Premium to Get Access to Downloads for Porn Content
1 Star2 Stars3 Stars4 Stars5 Stars (No Ratings Yet)
Loading...
Hits: 765 views

Stepson Wants Mom to Suck His Dick then Finally Makes Her Cry!

Download and Watch This Porn Content Now

Stepson Wants Mom to Suck His Dick then Finally Makes Her Cry [videos.vintagepornbay.com] FULL VERSION:

>>Watch or Download>> Stepson Wants Mom to Suck His Dick then Finally Makes Her Cry!

Order Vintagepornbay Premium to Get Access to Downloads for Porn Content
1 Star2 Stars3 Stars4 Stars5 Stars (2 votes, average: 4.00 out of 5)
Loading...
Hits: 531 views

Mayfair Magazine (UK) Vol.20 No.12 1980s [Full Scans]

Download and Watch This Porn Content Now

Download Mayfair Magazine Vol.20 No.12 Full and Complete Scans:

Some of this issue has been posted in February 2016 -We hope no one minds the odd duplication.

Never understood why 'girls of the year' were from the previous year and why a main stream adult magazine had such young models - 3 blocked out from this issue.

Note that with all the issues with hosting, most of our scans have missing pages - We will update when We can:

>>Watch or Download>> Mayfair Magazine (UK) Vol.20 No.12 1980s [Full Scans]

Order Vintagepornbay Premium to Get Access to Downloads for Porn Content
1 Star2 Stars3 Stars4 Stars5 Stars (2 votes, average: 5.00 out of 5)
Loading...
Hits: 552 views

Mouthing Off (1996) [Watch and Download]

Download and Watch This Porn Content Now

Watch and Download Mouthing Off (1996) Vintage Porn Movie [Rare]

Details:

Complete name :Mouthing Off (1996) (Lea Stevenson, Madelyn Night, Margo Stevens, Nina Hartley, Sahara Sands) K-Rip.avi
Format : AVI
Format/Info : Audio Video Interleave
File size : 1 018 MiB
Duration : 1 h 11 min
Overall bit rate mode : Variable
Overall bit rate : 1 989 kb/s
Writing application : VirtualDubMod 1.5.10.2 (build 2540/release)
Writing library : VirtualDubMod build 2540/release

Video
ID : 0
Format : MPEG-4 Visual
Format profile : Advanced [email protected]
Format settings, BVOP : 2
Format settings, QPel : No
Format settings, GMC : No warppoints
Format settings, Matrix : Default (H.263)
Muxing mode : Packed bitstream
Codec ID : XVID
Codec ID/Hint : XviD
Duration : 1 h 11 min
Bit rate : 1 854 kb/s
Width : 576 pixels
Height : 432 pixels
Display aspect ratio : 4:3
Frame rate : 29.970 (30000/1001) FPS
Color space : YUV
Chroma subsampling : 4:2:0
Bit depth : 8 bits
Scan type : Progressive
Compression mode : Lossy
Bits/(Pixel*Frame) : 0.249
Stream size : 949 MiB (93%)
Writing library : XviD 1.1.0 (UTC 2005-11-22)

Audio
ID : 1
Format : MPEG Audio
Format version : Version 1
Format profile : Layer 3
Mode : Joint stereo
Mode extension : MS Stereo
Codec ID : 55
Codec ID/Hint : MP3
Duration : 1 h 11 min
Bit rate mode : Variable
Bit rate : 121 kb/s
Nominal bit rate : 128 kb/s
Channel(s) : 2 channels
Sampling rate : 48.0 kHz
Compression mode : Lossy
Stream size : 62.0 MiB (6%)
Alignment : Aligned on interleaves
Interleave, duration : 24 ms (0.72 video frame)
Interleave, preload duration : 554 ms
Writing library : LAME3.90.
Encoding settings : -m j -V 4 -q 2 -lowpass 17.6 --abr 128

Notes: According to iafd this was released in 1998 while production credits indicate it was filmed in 1996. Hence this is posted in the classic section.

>>Watch or Download>> Mouthing Off (1996) [Watch and Download]

Order Vintagepornbay Premium to Get Access to Downloads for Porn Content
1 Star2 Stars3 Stars4 Stars5 Stars (No Ratings Yet)
Loading...
Hits: 1,332 views

Aunt Tries to Tease Step-Nephew and They Move on to Bathroom

Download and Watch This Porn Content Now

Aunt Tries to Tease Nephew and then They Move on to Bathroom [videos.vintagepornbay.com] FULL VIDEO:

>>Watch or Download>> Aunt Tries to Tease Step-Nephew and They Move on to Bathroom

Order Vintagepornbay Premium to Get Access to Downloads for Porn Content