Hits: 1,150 views
1 Star2 Stars3 Stars4 Stars5 Stars (No Ratings Yet)
Loading...

Das Buch der Sunde (2000) (Deutsche) [Download]

Download and Watch This Porn Content Now

also known as: Buch der Sunde, Super X 2 - das Buch der Sünde

Studio: DBM
Director: Basil Sandford
Language: German

Starring:
Anita Paris (as Alexa West)
Dorothy Black (as Diana Ribbeck)
Eileen Ryan
Jeanette
Katerina Atos (as Sarah Williams)
Liz Petri
Lola (as Janine Flair)
Madeline
Cindy Janko (as Peggy Pacific)
Kathy Heart (as Sarah Williams)
Romina Riley

Choky Ice (as Attila Horvath)
Adam Jannin (as Corrado Marelli)
Paul Kreese (as Darius Kovac)
Mario Rossi (as Marco Spinosa)
Thomas Stone (as Peter Delight)
Ronnie Weber
Alex Forte (as Tucker Moon)

avi | 788x576 | 1 part | 1,26 GB | 01:24:40

>>Watch or Download>> Das Buch der Sunde (2000) (Deutsche) [Download]

Order Vintagepornbay Premium to Get Access to Downloads for Porn Content
Hits: 629 views
1 Star2 Stars3 Stars4 Stars5 Stars (No Ratings Yet)
Loading...

Behind the Back Door 4 (1991) (USA) (Rare) [Download]

Download and Watch This Porn Content Now

Details:

Complete name : Behind the Back Door #4 (1991) (Courtney, Domonique Simone, Heater Hart, Saki St Jermaine, Paula Price) zzzcap.mp4
Format : MPEG-4
Format profile : Base Media
Codec ID : isom (isom/avc1)
File size : 930 MiB
Duration : 1 h 20 min
Overall bit rate mode : Variable
Overall bit rate : 1 609 kb/s
Encoded date : UTC 2013-03-10 23:14:07
Tagged date : UTC 2013-03-10 23:14:07

Video
ID : 1
Format : AVC
Format/Info : Advanced Video Codec
Format profile : High@L3
Format settings : CABAC / 8 Ref Frames
Format settings, CABAC : Yes
Format settings, RefFrames : 8 frames
Codec ID : avc1
Codec ID/Info : Advanced Video Coding
Duration : 1 h 20 min
Bit rate : 1 523 kb/s
Maximum bit rate : 3 186 kb/s
Width : 576 pixels
Height : 432 pixels
Display aspect ratio : 4:3
Frame rate mode : Constant
Frame rate : 29.970 (29970/1000) FPS
Color space : YUV
Chroma subsampling : 4:2:0
Bit depth : 8 bits
Scan type : Progressive
Bits/(Pixel*Frame) : 0.204
Stream size : 880 MiB (95%)
Writing library : x264 core 125 r2200 999b753

Audio
ID : 2
Format : MPEG Audio
Format version : Version 1
Format profile : Layer 3
Format settings : Joint stereo / MS Stereo
Codec ID : mp4a-6B
Duration : 1 h 20 min
Bit rate mode : Variable
Bit rate : 82.2 kb/s
Nominal bit rate : 96.0 kb/s
Maximum bit rate : 91.0 kb/s
Channel(s) : 2 channels
Sampling rate : 32.0 kHz
Frame rate : 27.778 FPS (1152 SPF)
Compression mode : Lossy
Stream size : 47.5 MiB (5%)
Writing library : LAME3.99r
Encoding settings : -m j -V 4 -q 2 -lowpass 15.1 --abr 96

>>Watch or Download>> Behind the Back Door 4 (1991) (USA) (Rare) [Download]

Order Vintagepornbay Premium to Get Access to Downloads for Porn Content
Hits: 2,148 views
1 Star2 Stars3 Stars4 Stars5 Stars (No Ratings Yet)
Loading...

21 Magazines: Maximum Perversum (1993-2006) JPG Collection

Download and Watch This Porn Content Now

21 Magazines: Maximum Perversum (1993-2006) JPG

Year: 1993-2006
Format: JPG
Category: All sex, Group sex, Anal, Fisting
Country: Germany
Magazines Non: 3,4,10,15,26-28,31,34-36,38,46,47,49-53,56,57
File Size: 634 MB (21 Magazines)

>>Watch or Download>> 21 Magazines: Maximum Perversum (1993-2006) JPG Collection

Order Vintagepornbay Premium to Get Access to Downloads for Porn Content