Hits: 21 views
1 Star2 Stars3 Stars4 Stars5 Stars (No Ratings Yet)
Loading...

The Joys Of Sec’s (1989) (USA)

Download and Watch This Porn Content Now

The Joys Of Sec's* (1989-Video Exclusives/Leisure Time)
*-boxcover says "The Joy Of Sec's", while the opening credits say "The Joys Of Sec's", as does iafd.com.

Cast: Gail , Dana Lynn, Tracey Adams, Kim Alexis (boxcover credited as Toni Christian; opening credits as Kim Acosta), Alexa Parks, Jon Dough (boxcover credited as Jan Sanders; opening credits as Chet Sanders), Ray Victory, Frank James, Jesse Eastern & Ron Jeremy (non-sex).

Director (and Writer): Ron Jeremy (using the noms de porn of "Bill Blackman", and "David Elliot", for director and writer, respectively). We also believe he is "Mark Curtis" (the producer), as Mark Curtis seems to produce all of these Bill Blackman/Ron Jeremy flicks.

Video: MP4 (AVC)
Size: 1.27 GB
Resolution: 624x480
Duration: 1:11:38~71 minutes
Source: VHS

 

>>Watch or Download>> The Joys Of Sec’s (1989) (USA)

Order Vintagepornbay Premium to Get Access to Downloads for Porn Content
Hits: 50 views
1 Star2 Stars3 Stars4 Stars5 Stars (No Ratings Yet)
Loading...

Riley Steele: Love Fool (2010) [1080p] [HD]

Download and Watch This Porn Content Now

Details:

Complete name : Riley Steele, Love Fool (2010) (Dani Jensen, Riley Steele, Sindee Jennings, Tori Black) 1080p.mkv
Format : Matroska
Format version : Version 2
File size : 4.38 GiB
Duration : 1 h 22 min
Overall bit rate : 7 547 kb/s
Writing application : mkvmerge v3.2.0 ('Beginnings') built on Feb 12 2010 16:46:17
Writing library : libebml v0.7.9 + libmatroska v0.8.1

Video
ID : 1
Format : AVC
Format/Info : Advanced Video Codec
Format profile : [email protected]
Format settings : CABAC / 5 Ref Frames
Format settings, CABAC : Yes
Format settings, RefFrames : 5 frames
Codec ID : V_MPEG4/ISO/AVC
Duration : 1 h 22 min
Bit rate : 7 098 kb/s
Width : 1 920 pixels
Height : 1 080 pixels
Display aspect ratio : 16:9
Frame rate mode : Constant
Frame rate : 23.976 FPS
Color space : YUV
Chroma subsampling : 4:2:0
Bit depth : 8 bits
Scan type : Progressive
Bits/(Pixel*Frame) : 0.143
Stream size : 4.03 GiB (92%)
Writing library : x264 core 80 r1376M 3feaec2

Language : English

Audio
ID : 2
Format : AC-3
Format/Info : Audio Coding 3
Commercial name : Dolby Digital
Codec ID : A_AC3
Duration : 1 h 22 min
Bit rate mode : Constant
Bit rate : 448 kb/s
Channel(s) : 6 channels
Channel layout : L R C LFE Ls Rs
Sampling rate : 48.0 kHz
Frame rate : 31.250 FPS (1536 SPF)
Bit depth : 16 bits
Compression mode : Lossy
Stream size : 266 MiB (6%)
Language : English
Service kind : Complete Main
Default : Yes >>Watch or Download>> Riley Steele: Love Fool (2010) [1080p] [HD]

Order Vintagepornbay Premium to Get Access to Downloads for Porn Content
Hits: 67 views
1 Star2 Stars3 Stars4 Stars5 Stars (No Ratings Yet)
Loading...

The Hang Up (1969) (Softcore) (USA) [HD] [1080p]

Download and Watch This Porn Content Now

Crime-erotic drama
This movie is "The" Hang Up " with fake title.

The Hangup (On Screen Title) aka The Hang Up

This seedy cr**e drama focuses on an undercover vice cop. Neurotic and sexually frustrated, he hangs around strip joints, gay bars and swingers clubs. He finally meets and falls in love with a hippie girl.

This is the 1080p rip of the Vinegar Syndrome Release DVD.

Actresses (Listing may be incomplete. They all may or may not be Softcore Nude scenes performers)

Bambi Allen
Bonnie Clark
Genene Cooper
Sharon Matt
Karen Swanson

Actors (Listing may be incomplete. They all may or may not be Softcore Nude scenes performers)

Gene Blackey
William Guhl
James Lemp
Michael March
James E. Myers
Luke Perry
Ted Roter (Credited: Peter Balachoff)
Tony Vorno (Credited: Sebastian Gregory)

Scene Breakdowns

N/A

File Size: 5.46 GB .mkv
Resolution: 1920x1040 @23.976fps
Duration: 01:15:26
Language: English
with built-in English subtitles that can be turned on or off when played back with VLC.

Video Quality: Good
Audio Quality: Good
wildtig2013's Rating of Softcore Nude scenes: Cold Tepid Warm Hot !!!Scorching!!!

>>Watch or Download>> The Hang Up (1969) (Softcore) (USA) [HD] [1080p]

Order Vintagepornbay Premium to Get Access to Downloads for Porn Content
Hits: 107 views
1 Star2 Stars3 Stars4 Stars5 Stars (No Ratings Yet)
Loading...

Web of Seduction (1999) (USA) (Softcore) [Download]

Download and Watch This Porn Content Now

Web of Seduction (1999)
Directed by: Blain Brown
Stars: Lauren Hays, Eric Acsell, Tracy Ryan
Language: English

Size: 700mb
Media lenght: 93:49mins
Resolution: 634×464

>>Watch or Download>> Web of Seduction (1999) (USA) (Softcore) [Download]

Order Vintagepornbay Premium to Get Access to Downloads for Porn Content
Hits: 110 views
1 Star2 Stars3 Stars4 Stars5 Stars (No Ratings Yet)
Loading...

The Best Of Jenna Jameson (1998) (USA) [Download]

Download and Watch This Porn Content Now

The Best Of Jenna Jameson (1998)

Language
English

Performers
Jenna Jameson, Mark Davis, Mike Horner, Peter North
Vince Voyeur, Brad Armstrong

Info
Format: AVI | File size: 1281 MiB | Duration: 1hr 32mn | Width: 576 pixels Height: 432 pixels

Archive recovery record: 3%

>>Watch or Download>> The Best Of Jenna Jameson (1998) (USA) [Download]

Order Vintagepornbay Premium to Get Access to Downloads for Porn Content
Hits: 155 views
1 Star2 Stars3 Stars4 Stars5 Stars (No Ratings Yet)
Loading...

Return Of The Bimbo (1992) (Rare) (USA) [Download]

Download and Watch This Porn Content Now

Cast: Devon Shire, Domonique Simone, Taylor Wane, Cameo, Leanna Foxxx, Jerry Butler, Tom Chapman, Wayne Summers
Studio: Arrow Productions

Description: What turns you on? Wet holes being licked until climax in a nasty lesbian foursome? A big-breasted, black slut ready to wear a lovely pearl necklace? Arrow Productions brings you a sexy story starring Leanna Foxxx and friends, bimbos who have seen it, and done it all!

File: 669 MB (669 MB), duration: 1:11:07, type: ASF, 1 audio stream(s), quality: 35 %
Video : 637 MB, 1252 Kbps, 20.563 fps, 480*360 (4:3), WMV3 = Windows Media Video 9
Audio : 32 MB, 64 Kbps, 48000 Hz, 2 channels, 0x161 = WMA 2 (v7,v8) or Divx audio v4

>>Watch or Download>> Return Of The Bimbo (1992) (Rare) (USA) [Download]

Order Vintagepornbay Premium to Get Access to Downloads for Porn Content