Page 1 of 69123...102030...Last »
1 Star2 Stars3 Stars4 Stars5 Stars (No Ratings Yet)
Loading...
Hits: 50 views

Night Moves (1983) (USA) [Download]

Download and Watch This Porn Content Now

Download Night Moves Porn Movie:

Year:
1983

Language:
English

Director:
Domingo Lobo

Actresses:
* Carrie Bergman
* Cindy Carver
* Courtney
* Lili Marlene
* Lonnie Emerson
* Robin Everett
* Shanna McCullough

Actors:
* Billy Dee
* Joe Elliot
* Mike Horner
* William Lowen

file size: 709 mb
resolution: 480x360
duration: 01.15.01
format: .mp4
cast: Shanna McCullough, Robin Everett, Lili Marlene aka Lilly Marlene, Lonnie Emerson, Carrie Bergman, Cindy Carver, Courtney

>>Watch or Download>> Night Moves (1983) (USA) [Download]

Order Vintagepornbay Premium to Get Access to Downloads for Porn Content
1 Star2 Stars3 Stars4 Stars5 Stars (1 votes, average: 3.00 out of 5)
Loading...
Hits: 53 views

Plaisirs morbides (1996) (Org. FR) [High Quality] [Download]

Download and Watch This Porn Content Now

Video transfer - Original french version

Format: avi
Size: 749 Mb
Resol: 384x288
Length: 01:22:58
Lang: French
Quality: Pretty good

Cast (Egafd):

  • Maeva
  • Sandra de Angelis as Letizia
  • Tanya la Rivière as Tania Lariviere
  • Francesco Malcom
  • David Perry
  • Roberto Malone

>>Watch or Download>> Plaisirs morbides (1996) (Org. FR) [High Quality] [Download]

Order Vintagepornbay Premium to Get Access to Downloads for Porn Content
1 Star2 Stars3 Stars4 Stars5 Stars (1 votes, average: 5.00 out of 5)
Loading...
Hits: 329 views

Nighttime Stories (1991) (US) [Download]

Download and Watch This Porn Content Now

Details:

Complete name : Nighttime Stories (1992) (Melanie Moore; Amber Woods; Debi Diamond; Danielle Rogers).mp4
Format : MPEG-4
Format profile : Base Media
Codec ID : isom (isom/avc1)
File size : 716 MiB
Duration : 1 h 9 min
Overall bit rate mode : Variable
Overall bit rate : 1 449 kb/s
Encoded date : UTC 2014-04-02 04:22:48
Tagged date : UTC 2014-04-02 04:22:48

  • Scene 1. Melanie Moore, Steve Drake
  • Scene 2. Amber Woods, Danielle Rodgers, Debi Diamond
  • Scene 3. Debi Diamond, Melanie Moore, Blake Palmer
  • Scene 4. Amber Woods, Steve Drake
  • Scene 5. Danielle Rodgers, Randy Spears

Video
ID : 1
Format : AVC
Format/Info : Advanced Video Codec
Format profile : [email protected]
Format settings : CABAC / 8 Ref Frames
Format settings, CABAC : Yes
Format settings, RefFrames : 8 frames
Codec ID : avc1
Codec ID/Info : Advanced Video Coding
Duration : 1 h 9 min
Bit rate : 1 363 kb/s
Maximum bit rate : 3 475 kb/s
Width : 576 pixels
Height : 432 pixels
Display aspect ratio : 4:3
Frame rate mode : Constant
Frame rate : 29.970 (29970/1000) FPS
Color space : YUV
Chroma subsampling : 4:2:0
Bit depth : 8 bits
Scan type : Progressive
Bits/(Pixel*Frame) : 0.183
Stream size : 674 MiB (94%)
Writing library : x264 core 125 r2200 999b753 >>Watch or Download>> Nighttime Stories (1991) (US) [Download]

Order Vintagepornbay Premium to Get Access to Downloads for Porn Content
1 Star2 Stars3 Stars4 Stars5 Stars (No Ratings Yet)
Loading...
Hits: 75 views

Quelques Objets Du Plaisir (1991) (FR) [Normal Quality] [Download]

Download and Watch This Porn Content Now

Carole Trédille, Sandrine Van Herpe

Format: avi
Size: 286 Mb
Resol: 720x564
Runtime: 51 min.
Lang: Only music in the background
Quality: More than acceptable

Credits as above

>>Watch or Download>> Quelques Objets Du Plaisir (1991) (FR) [Normal Quality] [Download]

Order Vintagepornbay Premium to Get Access to Downloads for Porn Content
1 Star2 Stars3 Stars4 Stars5 Stars (No Ratings Yet)
Loading...
Hits: 385 views

Salomé – (1997) (ITALY) [German DUB] [Download]

Download and Watch This Porn Content Now

Salome
director: Franco Lo Cascio
Cast: Sara Bernat, Candela, Carmen, Élodie Cherie, Marcarena de la Vega, Maria De Sanchez, Sophie Evans (as Leslie), Flavio, Ramón Guevara, Alain L'Yle, Roberto Malone, Manya, Eric Montero, Myriam, Tony Ribas, Olivier Sanchez, Valentina, Kristina Varga (as Kristina Kusz), Nacho Vidal, Eniko Wrabel (as Eneko), Remigio Zampa

Format: avi
Size: 542 Mb
Resol: 512x384
Length: 01:22:37
Lang: German
Quality: Pretty good

Credits as above.

>>Watch or Download>> Salomé – (1997) (ITALY) [German DUB] [Download]

Order Vintagepornbay Premium to Get Access to Downloads for Porn Content
1 Star2 Stars3 Stars4 Stars5 Stars (No Ratings Yet)
Loading...
Hits: 164 views

Sarah and Friends 5 (1993) [High Quality] [Rare] [Download]

Download and Watch This Porn Content Now

no cover

Format Media: MP4
Video: H.264/AVC 672x576 25fps
Audio: AAC 196kbps [English]
2.05 GB (2 204 063 416 bytes)
01:55:24

>>Watch or Download>> Sarah and Friends 5 (1993) [High Quality] [Rare] [Download]

Order Vintagepornbay Premium to Get Access to Downloads for Porn Content
1 Star2 Stars3 Stars4 Stars5 Stars (1 votes, average: 4.00 out of 5)
Loading...
Hits: 317 views

Backstage Entrance 1 (1992) (Rare) [HQ] [Download]

Download and Watch This Porn Content Now

Details:

Complete name : Backstage Entrance #1 (1992) 69 MIN (Marissa Malibu; Angella Faith; Saki St Jermaine; Traci Winn) zzzcap.mp4
Format : MPEG-4
Format profile : Base Media
Codec ID : isom (isom/avc1)
File size : 1.07 GiB
Duration : 1 h 9 min
Overall bit rate mode : Variable
Overall bit rate : 2 208 kb/s
Encoded date : UTC 2014-07-05 16:39:02
Tagged date : UTC 2014-07-05 16:39:02

Video
ID : 1
Format : AVC
Format/Info : Advanced Video Codec
Format profile : [email protected]
Format settings : CABAC / 8 Ref Frames
Format settings, CABAC : Yes
Format settings, RefFrames : 8 frames
Codec ID : avc1
Codec ID/Info : Advanced Video Coding
Duration : 1 h 9 min
Bit rate : 2 124 kb/s
Maximum bit rate : 11.0 Mb/s
Width : 640 pixels
Height : 480 pixels
Display aspect ratio : 4:3
Frame rate mode : Constant
Frame rate : 29.970 (29970/1000) FPS
Color space : YUV
Chroma subsampling : 4:2:0
Bit depth : 8 bits
Scan type : Progressive
Bits/(Pixel*Frame) : 0.231
Stream size : 1.02 GiB (96%)

>>Watch or Download>> Backstage Entrance 1 (1992) (Rare) [HQ] [Download]

Order Vintagepornbay Premium to Get Access to Downloads for Porn Content