Page 1 of 11123...10...Last »
1 Star2 Stars3 Stars4 Stars5 Stars (No Ratings Yet)
Loading...
Hits: 610 views

Adult Fantasy No 36 (UK) – Vintage Porn Magazine Scans

Download and Watch This Porn Content Now

   

Continues parts and full scans inside:

>>Watch or Download>> Adult Fantasy No 36 (UK) – Vintage Porn Magazine Scans

Order Vintagepornbay Premium to Get Access to Downloads for Porn Content
1 Star2 Stars3 Stars4 Stars5 Stars (No Ratings Yet)
Loading...
Hits: 570 views

Scheinheilig Pervers (2004) [Deutsche] [HQ] [Download]

Download and Watch This Porn Content Now

Scheinheilig Pervers (2004)

  

Studio: Goldlight
Director: J.C.
Cast: Chucky Brown
Language: German

Format : AVI
File size : 700 MiB
Codec ID/Hint : XviD
Duration : 1 h 56 min
Bit rate : 661 kb/s
Width : 640 pixels
Height : 480 pixels
Audio: : mp3

>>Watch or Download>> Scheinheilig Pervers (2004) [Deutsche] [HQ] [Download]

Order Vintagepornbay Premium to Get Access to Downloads for Porn Content
1 Star2 Stars3 Stars4 Stars5 Stars (1 votes, average: 4.00 out of 5)
Loading...
Hits: 1,052 views

Spritztour nach Moldavien (1999) [Deutsche] [HQ] [Download]

Download and Watch This Porn Content Now

Realised by DBM, in "Sex auf Radern" series.

Girl in scene 3 could be Fredericke Stanza, other girls unknown to us.

Cover:

Single pics preview:
   
  

AVI file, 740MB, 656x492, 1:21:25

>>Watch or Download>> Spritztour nach Moldavien (1999) [Deutsche] [HQ] [Download]

Order Vintagepornbay Premium to Get Access to Downloads for Porn Content
1 Star2 Stars3 Stars4 Stars5 Stars (No Ratings Yet)
Loading...
Hits: 649 views

Monkey Wench (1994) (USA) – Shelby Stevens Movie – [HQ]

Download and Watch This Porn Content Now

Details:

Complete name : Monkey Wench (1994) (Shelby Stevens, Serenity) zzzzcap.mp4
Format : MPEG-4
Format profile : Base Media
Codec ID : isom (isom/avc1)
File size : 973 MiB
Duration : 1 h 20 min
Overall bit rate mode : Variable
Overall bit rate : 1 685 kb/s
Encoded date : UTC 2015-08-11 16:53:44
Tagged date : UTC 2015-08-11 16:53:44

Video
ID : 1
Format : AVC
Format/Info : Advanced Video Codec
Format profile : [email protected]
Format settings, CABAC : Yes
Format settings, ReFrames : 8 frames
Codec ID : avc1
Codec ID/Info : Advanced Video Coding
Duration : 1 h 20 min
Bit rate : 1 600 kb/s
Maximum bit rate : 5 126 kb/s
Width : 640 pixels
Height : 480 pixels
Display aspect ratio : 4:3
Frame rate mode : Constant
Frame rate : 29.970 (29970/1000) FPS
Color space : YUV
Chroma subsampling : 4:2:0
Bit depth : 8 bits
Scan type : Progressive
Bits/(Pixel*Frame) : 0.174
Stream size : 924 MiB (95%)
Writing library : x264 core 125 r2200 999b753

Encoded date : UTC 2015-08-11 16:53:44
Tagged date : UTC 2015-08-11 16:58:20

Audio
ID : 2
Format : MPEG Audio
Format version : Version 1
Format profile : Layer 3
Mode : Joint stereo
Mode extension : MS Stereo
Codec ID : 6B
Duration : 1 h 20 min
Bit rate mode : Variable
Bit rate : 80.8 kb/s
Nominal bit rate : 96.0 kb/s
Maximum bit rate : 90.4 kb/s
Channel(s) : 2 channels
Sampling rate : 32.0 kHz
Compression mode : Lossy
Stream size : 46.7 MiB (5%)
Writing library : LAME3.99r
Encoding settings : -m j -V 4 -q 2 -lowpass 15.1 --abr 96
Encoded date : UTC 2015-08-11 16:58:16
Tagged date : UTC 2015-08-11 16:58:20

>>Watch or Download>> Monkey Wench (1994) (USA) – Shelby Stevens Movie – [HQ]

Order Vintagepornbay Premium to Get Access to Downloads for Porn Content
1 Star2 Stars3 Stars4 Stars5 Stars (No Ratings Yet)
Loading...
Hits: 603 views

Parkplatz Pannen (2007) (German Amateurs) [Deutsche] [Download]

Download and Watch This Porn Content Now

Starring: Amateurs

 

Duration: 01:32:05 | Size: 699 MB | 576x320 | AVI | MP3

>>Watch or Download>> Parkplatz Pannen (2007) (German Amateurs) [Deutsche] [Download]

Order Vintagepornbay Premium to Get Access to Downloads for Porn Content