Page 1 of 68123...102030...Last »
1 Star2 Stars3 Stars4 Stars5 Stars (No Ratings Yet)
Loading...
Hits: 129 views

Sarah and Friends 5 (1993) [High Quality] [Rare] [Download]

Download and Watch This Porn Content Now

no cover

Format Media: MP4
Video: H.264/AVC 672x576 25fps
Audio: AAC 196kbps [English]
2.05 GB (2 204 063 416 bytes)
01:55:24

>>Watch or Download>> Sarah and Friends 5 (1993) [High Quality] [Rare] [Download]

Order Vintagepornbay Premium to Get Access to Downloads for Porn Content
1 Star2 Stars3 Stars4 Stars5 Stars (1 votes, average: 4.00 out of 5)
Loading...
Hits: 296 views

Backstage Entrance 1 (1992) (Rare) [HQ] [Download]

Download and Watch This Porn Content Now

Details:

Complete name : Backstage Entrance #1 (1992) 69 MIN (Marissa Malibu; Angella Faith; Saki St Jermaine; Traci Winn) zzzcap.mp4
Format : MPEG-4
Format profile : Base Media
Codec ID : isom (isom/avc1)
File size : 1.07 GiB
Duration : 1 h 9 min
Overall bit rate mode : Variable
Overall bit rate : 2 208 kb/s
Encoded date : UTC 2014-07-05 16:39:02
Tagged date : UTC 2014-07-05 16:39:02

Video
ID : 1
Format : AVC
Format/Info : Advanced Video Codec
Format profile : [email protected]
Format settings : CABAC / 8 Ref Frames
Format settings, CABAC : Yes
Format settings, RefFrames : 8 frames
Codec ID : avc1
Codec ID/Info : Advanced Video Coding
Duration : 1 h 9 min
Bit rate : 2 124 kb/s
Maximum bit rate : 11.0 Mb/s
Width : 640 pixels
Height : 480 pixels
Display aspect ratio : 4:3
Frame rate mode : Constant
Frame rate : 29.970 (29970/1000) FPS
Color space : YUV
Chroma subsampling : 4:2:0
Bit depth : 8 bits
Scan type : Progressive
Bits/(Pixel*Frame) : 0.231
Stream size : 1.02 GiB (96%)

>>Watch or Download>> Backstage Entrance 1 (1992) (Rare) [HQ] [Download]

Order Vintagepornbay Premium to Get Access to Downloads for Porn Content
1 Star2 Stars3 Stars4 Stars5 Stars (No Ratings Yet)
Loading...
Hits: 198 views

La Chiesa Del Peccato (1998) [High Quality] [Download]

Download and Watch This Porn Content Now

Studio: Salieri Entertainment
Director: Jenny Forte & Nicky Ranieri
Cast: Livia Harrow, Diana Huldiman, Monica Roccaforte, Joy Karins, Paru Silios, Alba Foster, Richard Lengin, Walter Midolo, Joe Calzone
Language: Italian

Audio - Italian

DVD5

3.60 GB
01:26:10
720 x 576
25.000 fps
VOB [ISO]

>>Watch or Download>> La Chiesa Del Peccato (1998) [High Quality] [Download]

Order Vintagepornbay Premium to Get Access to Downloads for Porn Content
1 Star2 Stars3 Stars4 Stars5 Stars (1 votes, average: 5.00 out of 5)
Loading...
Hits: 192 views

Black on White Revisited (1995) Taboo (Rare) [Download]

Download and Watch This Porn Content Now

Download Black on White Revisited (1995) - Lexus, Felecia, Jordan Lee, Tabitha, Lana Sands, Taboo Porn Movie:

Scene 1. Felecia, Lexus Locklear
Scene 2. Jordan Lee, Tabitha
Scene 3. Lana Sands, Lexus Locklear
Scene 4. Ariel Daye, Taboo
Scene 5. Ariel Daye, Felecia, Jordan Lee

Country : USA
Language : English
File : .mp4
File size : 1.78 GB
Resolution : 640 x 480
Framerate : 59.94 fps
Duration : 01:16:07

>>Watch or Download>> Black on White Revisited (1995) Taboo (Rare) [Download]

Order Vintagepornbay Premium to Get Access to Downloads for Porn Content
1 Star2 Stars3 Stars4 Stars5 Stars (No Ratings Yet)
Loading...
Hits: 213 views

Euroticon 2 (1991) (Rare) [Download]

Download and Watch This Porn Content Now

Scene Breakdowns

Scene 1. Misty McCaine
Scene 2. Isabelle LeMan, 3 guys
Scene 3. Jasmin Jones, 2 guys
Scene 4. Nikki Pearce, guy
Scene 5. Nikki Pearce, Rosemary, Christoph Clark, Rocco Siffredi
Scene 6. Misty McCaine, Jasmin Jones
Scene 7. Misty McCaine, Rocco Siffredi
Scene 8. Misty McCaine, guy

Audio - English

1.11 GB
01:22:01
640 x 480
25.000 fps
WMV

>>Watch or Download>> Euroticon 2 (1991) (Rare) [Download]

Order Vintagepornbay Premium to Get Access to Downloads for Porn Content
1 Star2 Stars3 Stars4 Stars5 Stars (1 votes, average: 5.00 out of 5)
Loading...
Hits: 226 views

CamerAmateur: Cameroun sodomies (1990’s) (FR) [Download]

Download and Watch This Porn Content Now

Original french title: CamerAmateur: Cameroun'sodomies
Country: France
Year: Early 1990
Language: French

Release title: CamerAmateurs.Cameroun.sodomies.90s.FRENCH.VHSRip. x264-PiCOBELLO.mkv

Format : Matroska
Format version : Version 4 / Version 2
File size : 1.17 GiB
Duration : 59 min 58 s
Overall bit rate mode : Variable
Overall bit rate : 2 794 kb/s
Movie name : camerounsodomie
Encoded date : UTC 2018-02-04 19:30:59
Writing application : mkvmerge v13.0.0 ('The Juggler') 32bit
Writing library : libebml v1.3.4 + libmatroska v1.4.5

Video
ID : 1
Format : AVC
Format/Info : Advanced Video Codec
Format profile : [email protected]
Format settings : CABAC / 8 Ref Frames
Format settings, CABAC : Yes
Format settings, RefFrames : 8 frames
Codec ID : V_MPEG4/ISO/AVC
Duration : 59 min 58 s
Bit rate mode : Variable
Bit rate : 2 603 kb/s
Maximum bit rate : 62.5 Mb/s
Width : 680 pixels
Height : 562 pixels
Display aspect ratio : 1.210
Frame rate mode : Constant
Frame rate : 50.000 FPS
Color space : YUV
Chroma subsampling : 4:2:0
Bit depth : 8 bits
Scan type : Progressive
Bits/(Pixel*Frame) : 0.136
Stream size : 1.09 GiB (93%)
Writing library : x264 core 152 r2851 ba24899

>>Watch or Download>> CamerAmateur: Cameroun sodomies (1990’s) (FR) [Download]

Order Vintagepornbay Premium to Get Access to Downloads for Porn Content
1 Star2 Stars3 Stars4 Stars5 Stars (No Ratings Yet)
Loading...
Hits: 254 views

Heatwave 2 (1993) (US) [Download]

Download and Watch This Porn Content Now

Scene 1. P.J. Sparxx, Tiffany Mynx
Scene 2. Shelene
Scene 3. Chelsea Ann
Scene 4. Leanna Foxxx
Scene 5. Brazil
Scene 6. Brazil, Shelene
Scene 7. Domonique Simone, Leanna Foxxx, Lilli Xene

Country : USA
Language : English
File : .mp4
File size : 2.16 GB
Resolution : 640 x 480
Framerate : 59.94 fps
Duration : 01:08:54

>>Watch or Download>> Heatwave 2 (1993) (US) [Download]

Order Vintagepornbay Premium to Get Access to Downloads for Porn Content