Page 1 of 12123...10...Last »
1 Star2 Stars3 Stars4 Stars5 Stars (No Ratings Yet)
Loading...
Hits: 117 views

Skin Dive (1996) (Rare) [HQ] [Download]

Download and Watch This Porn Content Now

Details:

Complete name :Skindive (1996) (Anna Malle, Farrah, Kylie Ireland, Missy, Pryce Leigh) K-Rip.avi
Format : AVI
Format/Info : Audio Video Interleave
File size : 952 MiB
Duration : 1h 6mn
Overall bit rate : 1 989 Kbps
Writing application : VirtualDubMod 1.5.10.2 (build 2540/release)
Writing library : VirtualDubMod build 2540/release

Video
ID : 0
Format : MPEG-4 Visual
Format profile : Advanced [email protected]
Format settings, BVOP : Yes
Format settings, QPel : No
Format settings, GMC : No warppoints
Format settings, Matrix : Default (H.263)
Muxing mode : Packed bitstream
Codec ID : XVID
Codec ID/Hint : XviD
Duration : 1h 6mn
Bit rate : 1 843 Kbps
Width : 576 pixels
Height : 448 pixels
Display aspect ratio : 1.286
Frame rate : 29.970 fps
Color space : YUV
Chroma subsampling : 4:2:0
Bit depth : 8 bits
Scan type : Progressive
Bits/(Pixel*Frame) : 0.238
Stream size : 882 MiB (93%)
Writing library : XviD 1.1.0 (UTC 2005-11-22)

>>Watch or Download>> Skin Dive (1996) (Rare) [HQ] [Download]

Order Vintagepornbay Premium to Get Access to Downloads for Porn Content
1 Star2 Stars3 Stars4 Stars5 Stars (No Ratings Yet)
Loading...
Hits: 154 views

Big Bust Babes 9 (1992) (USA) [Download]

Download and Watch This Porn Content Now

1992 г.
All Sex, Big Boobs & Tits
01:10:48
AFVC Video

Country: USA

Cast: Daphne, Keisha, Mona Lisa, Tara Gold

File size: 700 MB
Video: Xvid 720x544 29.97fps [Stream 00]
Audio: MP3 48000Hz stereo 192kbps [Stream 01]
Duration: 01:10:49
Resolution: 720x544

Between Mona Lisa's massive mounds and her amorously addictive oral skills, Steve finds himself in hooter heaven. Mark starts out nuzzling Keisha's nifty nipples, then moves to lovingly lapping her luscious labia, finally ending up with her long legs slung over his studly shoulders. Daphne is a waifish stunner whose rail-thin body and massive mams give her a unique look that Max simply can't resist. Tara Gold is a blonde bombshell who seems to always be in overdrive. Luke finds Tara a bit too much to handle and has to call in Mark to help him out in a riveting threesome. Each scene here sparkles with unleashed erotic energy, filled to overflowing with busty beauties and unhinged carnal satisfaction.

>>Watch or Download>> Big Bust Babes 9 (1992) (USA) [Download]

Order Vintagepornbay Premium to Get Access to Downloads for Porn Content
1 Star2 Stars3 Stars4 Stars5 Stars (No Ratings Yet)
Loading...
Hits: 313 views

Nasty Reputation (1991) (USA) (HQ) [Download]

Download and Watch This Porn Content Now

Nasty Reputation (1991) - Trixie Tyler, Holly Ryder, Savannah, Melanie Lee, Stacy Nichols

Scene 1. Trixie Tyler, Tony Montana
Scene 2. Holly Ryder, Savannah
Scene 3. Melanie Lee, Tony Montana
Scene 4. Stacy Nichols, Biff Malibu
Scene 5. Trixie Tyler, Paul Pounder

Country : USA
Language : English
File : .mp4
File size : 2.20 gb
Resolution : 640 x 480
Framerate : 59.94 fps
Duration : 1:12:03

Beautiful large cover scans. Great to see:

>>Watch or Download>> Nasty Reputation (1991) (USA) (HQ) [Download]

Order Vintagepornbay Premium to Get Access to Downloads for Porn Content
1 Star2 Stars3 Stars4 Stars5 Stars (No Ratings Yet)
Loading...
Hits: 875 views

Monkey Wench (1994) (USA) – Shelby Stevens Movie – [HQ]

Download and Watch This Porn Content Now

Details:

Complete name : Monkey Wench (1994) (Shelby Stevens, Serenity) zzzzcap.mp4
Format : MPEG-4
Format profile : Base Media
Codec ID : isom (isom/avc1)
File size : 973 MiB
Duration : 1 h 20 min
Overall bit rate mode : Variable
Overall bit rate : 1 685 kb/s
Encoded date : UTC 2015-08-11 16:53:44
Tagged date : UTC 2015-08-11 16:53:44

Video
ID : 1
Format : AVC
Format/Info : Advanced Video Codec
Format profile : [email protected]
Format settings, CABAC : Yes
Format settings, ReFrames : 8 frames
Codec ID : avc1
Codec ID/Info : Advanced Video Coding
Duration : 1 h 20 min
Bit rate : 1 600 kb/s
Maximum bit rate : 5 126 kb/s
Width : 640 pixels
Height : 480 pixels
Display aspect ratio : 4:3
Frame rate mode : Constant
Frame rate : 29.970 (29970/1000) FPS
Color space : YUV
Chroma subsampling : 4:2:0
Bit depth : 8 bits
Scan type : Progressive
Bits/(Pixel*Frame) : 0.174
Stream size : 924 MiB (95%)
Writing library : x264 core 125 r2200 999b753

Encoded date : UTC 2015-08-11 16:53:44
Tagged date : UTC 2015-08-11 16:58:20

Audio
ID : 2
Format : MPEG Audio
Format version : Version 1
Format profile : Layer 3
Mode : Joint stereo
Mode extension : MS Stereo
Codec ID : 6B
Duration : 1 h 20 min
Bit rate mode : Variable
Bit rate : 80.8 kb/s
Nominal bit rate : 96.0 kb/s
Maximum bit rate : 90.4 kb/s
Channel(s) : 2 channels
Sampling rate : 32.0 kHz
Compression mode : Lossy
Stream size : 46.7 MiB (5%)
Writing library : LAME3.99r
Encoding settings : -m j -V 4 -q 2 -lowpass 15.1 --abr 96
Encoded date : UTC 2015-08-11 16:58:16
Tagged date : UTC 2015-08-11 16:58:20

>>Watch or Download>> Monkey Wench (1994) (USA) – Shelby Stevens Movie – [HQ]

Order Vintagepornbay Premium to Get Access to Downloads for Porn Content
1 Star2 Stars3 Stars4 Stars5 Stars (No Ratings Yet)
Loading...
Hits: 948 views

Xena XXX An Exquisite Films Parody (2012) (HQ) [Download Links]

Download and Watch This Porn Content Now

Starring: Phoenix Marie, Lexi Belle, Nicole Aniston, Juelz Ventura, Chanel Preston, Randi Wright, Rocco Reed, Lee Stone, Tommy Gunn, Seth Gamble, Tommy

Duration: 02:47:14 | Size: 2.18 GB | 1024x560 | AAC LC | MP4

>>Watch or Download>> Xena XXX An Exquisite Films Parody (2012) (HQ) [Download Links]

Order Vintagepornbay Premium to Get Access to Downloads for Porn Content