Hits: 132 views
1 Star2 Stars3 Stars4 Stars5 Stars (No Ratings Yet)
Loading...

Scenes From a Bar (1998) (USA) [Watch & Download]

Download and Watch This Porn Content Now

Details:

Complete name : Scenes From A Bar (1998) (Kobe Tai, Alyssa Allure, Katie Gold, Caressa Savage, Johnni Black, Alexandra Silk) K-Rip.mp4
Format : MPEG-4
Format profile : Base Media
Codec ID : isom (isom/avc1)
File size : 893 MiB
Duration : 1 h 14 min
Overall bit rate mode : Variable
Overall bit rate : 1 675 kb/s
Encoded date : UTC 2018-07-12 10:24:15
Tagged date : UTC 2018-07-12 10:24:15

Video
ID : 1
Format : AVC
Format/Info : Advanced Video Codec
Format profile : [email protected]
Format settings : CABAC / 5 Ref Frames
Format settings, CABAC : Yes
Format settings, RefFrames : 5 frames
Codec ID : avc1
Codec ID/Info : Advanced Video Coding
Duration : 1 h 14 min
Bit rate : 1 542 kb/s
Maximum bit rate : 4 474 kb/s
Width : 640 pixels
Height : 432 pixels
Display aspect ratio : 4:3
Original display aspect ratio : 4:3
Frame rate mode : Constant
Frame rate : 29.970 (30000/1001) FPS
Color space : YUV
Chroma subsampling : 4:2:0
Bit depth : 8 bits
Scan type : Progressive
Bits/(Pixel*Frame) : 0.186
Stream size : 822 MiB (92%)
Writing library : x264 core 155 r2901 7d0ff22

>>Watch or Download>> Scenes From a Bar (1998) (USA) [Watch & Download]

Order Vintagepornbay Premium to Get Access to Downloads for Porn Content
Hits: 140 views
1 Star2 Stars3 Stars4 Stars5 Stars (No Ratings Yet)
Loading...

Junggeselles Party 3 (Deutsche) (2000s) [Download]

Download and Watch This Porn Content Now

1:20:59 h mkv movie (700x576)
350 mb rar + 344 mb rar

>>Watch or Download>> Junggeselles Party 3 (Deutsche) (2000s) [Download]

Order Vintagepornbay Premium to Get Access to Downloads for Porn Content
Hits: 258 views
1 Star2 Stars3 Stars4 Stars5 Stars (No Ratings Yet)
Loading...

High Definition (2008) [720p] [HD] [Download]

Download and Watch This Porn Content Now

Details:

Complete name : High Definition (2008) (Kara Tai, Kimberly Kole, Lela Star, McKenzee Miles, Renna Ryann, Roxy Jezel, Ruby Knox) 720p.mkv
Format : Matroska
Format version : Version 1
File size : 6.40 GiB
Duration : 2 h 46 min
Overall bit rate : 5 516 kb/s
Encoded date : UTC 2008-07-17 09:58:23
Writing application : mkvmerge v2.2.0 ('Turn It On Again') built on Mar 4 2008 12:58:26
Writing library : libebml v0.7.7 + libmatroska v0.8.1

Video
ID : 1
Format : AVC
Format/Info : Advanced Video Codec
Format profile : [email protected]
Format settings : CABAC / 5 Ref Frames
Format settings, CABAC : Yes
Format settings, RefFrames : 5 frames
Codec ID : V_MPEG4/ISO/AVC
Duration : 2 h 46 min
Bit rate : 5 320 kb/s
Width : 1 280 pixels
Height : 720 pixels
Display aspect ratio : 16:9
Frame rate mode : Constant
Frame rate : 29.970 (29970/1000) FPS
Color space : YUV
Chroma subsampling : 4:2:0
Bit depth : 8 bits
Scan type : Progressive
Bits/(Pixel*Frame) : 0.193
Stream size : 6.05 GiB (95%)
Writing library : x264 core 60 r901M 58d7d06

Language : English
>>Watch or Download>> High Definition (2008) [720p] [HD] [Download]

Order Vintagepornbay Premium to Get Access to Downloads for Porn Content
Hits: 459 views
1 Star2 Stars3 Stars4 Stars5 Stars (No Ratings Yet)
Loading...

Doppel-Anal Im Sperma-Kasino – 1999 (DE) [HQ] [Download]

Download and Watch This Porn Content Now

Here's an old Magma VHS 88615 rip, quality 7/10.

1,77GB, 1:35:36, 720x576, MKV-H.264

IB Full VHS cover and previews:

>>Watch or Download>> Doppel-Anal Im Sperma-Kasino – 1999 (DE) [HQ] [Download]

Order Vintagepornbay Premium to Get Access to Downloads for Porn Content
Hits: 339 views
1 Star2 Stars3 Stars4 Stars5 Stars (No Ratings Yet)
Loading...

Dirty Job – Complotto Carnale (ITALY) (2008) [1080p] [HD] [Download]

Download and Watch This Porn Content Now

also known as: Dirty Job: Complotto Carnale, Reglements De Comptes, Règlements de comptes

Studio: ATV
Director: Jack La Fonte
Language: Italian

Starring:
Black Angelika (as Black Angelica)
Crystal Crown
Lily Love (as Gilda Roberts)
Leanna Sweet
Priscilla Salerno
Regina Moon

Dieter Von Stein (as Diether Von Stein)
Horst Baron
Marco Nero
Omar Galanti
Ricardo Bell (as Riccardo Bell)
Thomas Stone

Scene 1. Priscilla Salerno, Ricardo Bell
Scene 2. Lily Love, Regina Moon, Horst Baron, Marco Nero
Scene 3. Leanna Sweet, Dieter Von Stein, Marco Nero
Scene 4. Black Angelika, Omar Galanti
Scene 5. Crystal Crown, Marco Nero, Thomas Stone

Details:

Complete name : [ATV] Dirty Job (2008) (Black Angelika, Crystal Crown, Leanna Sweet, Regina Moon, Priscilla Salerno, Lily Love) 1080p.mkv
Format : Matroska
Format version : Version 2
File size : 7.65 GiB
Duration : 1 h 49 min
Overall bit rate : 9 972 kb/s
Encoded date : UTC 2015-09-01 05:43:33
Writing application : mkvmerge v7.7.0 ('Six Voices') 32bit built on Feb 28 2015 23:23:00
Writing library : libebml v1.3.1 + libmatroska v1.4.2

Video
ID : 1
Format : AVC
Format/Info : Advanced Video Codec
Format profile : [email protected]
Format settings : CABAC / 4 Ref Frames
Format settings, CABAC : Yes
Format settings, RefFrames : 4 frames
Codec ID : V_MPEG4/ISO/AVC
Duration : 1 h 49 min
Bit rate : 9 780 kb/s
Width : 1 920 pixels
Height : 1 080 pixels
Display aspect ratio : 16:9
Frame rate mode : Constant
Frame rate : 25.000 FPS
Color space : YUV
Chroma subsampling : 4:2:0
Bit depth : 8 bits
Scan type : Progressive
Bits/(Pixel*Frame) : 0.189
Stream size : 7.50 GiB (98%)
Writing library : x264 core 146 r2538 121396c

>>Watch or Download>> Dirty Job – Complotto Carnale (ITALY) (2008) [1080p] [HD] [Download]

Order Vintagepornbay Premium to Get Access to Downloads for Porn Content
Hits: 394 views
1 Star2 Stars3 Stars4 Stars5 Stars (No Ratings Yet)
Loading...

Blondes in Black leather (1971) (USA) (Softcore) [Download]

Download and Watch This Porn Content Now
Blondes in Black leather (1971)
AKA : Nokaut (original title)
Knock-Out a la vida
Instant Success
Knockout (TV title)
The Rogue

IMDB Storyline

Scourged by the need to be different from his contemporaries and driven by an insatiable hunger for
adventurous living, Marko, a young man of 25, returns from America where he has spent a few years. He
wants to impress people in his native town, but eventually everything turns against him.

Tagline: He could make beautiful women do anything he wanted... and he wanted EVERYTHING

From an IMDB review:

It is clear pretty early on this is not really going anywhere and we can just relax and enjoy the flesh and music
February 2006

The scoring may be a little generous but I'm a sucker for films of this period
that are, well so, of the period. Some of these asides seem rather 'real' and
the authoritarian hair cutting of a group of youngsters a bit scary. One has to
be aware here that there were many in the fragile union, that was Yugoslavia,
not at all keen on the western influences 'infecting' their young and the contrast
between the poor, traditional locals and the whiskey drinking, hippy loving young
was vast. So for the most part this is a carefree, sexy super early 70s movie but
there is a darker background and when the tale is infused with an aborted drug
deal, the only way is down. Great performances and a most interesting film that
seems to capture an aspect of the time perfectly.

Directors: Boro Draskovic (as Barry Norton), Gregory Simpson

Cast:
Milan Galovic............Marko (as William Gale)
Barbara Bouchet.......Barbara
Margaret Lee............Olga

English dubbed

AVI _|_ 980MB _|_ 640X582 _|_ 01:23:58

>>Watch or Download>> Blondes in Black leather (1971) (USA) (Softcore) [Download]

Order Vintagepornbay Premium to Get Access to Downloads for Porn Content
Hits: 614 views
1 Star2 Stars3 Stars4 Stars5 Stars (No Ratings Yet)
Loading...

Girls Unbutton 1994 (Hong Kong) (HQ) [Download]

Download and Watch This Porn Content Now

Country: Hong Kong
Year: 1994
Language: Cantonese
Subtitles: English, Mandarin
Quality: Good, DVD Rip
Run time: 89 minutes
Size: 735.9 MB
Media: AVI
Resolution: 640x480

Director: Taylor Wong
Cast:
Loletta Lee
See-ho Leung
Poon Jan-Wai,
Miki Ng

Another Loletta Lee showcase, this is a crazy sex comedy. Also catch her in Sex and Zen 2 and Crazy Love which was posted earlier.

Lee plays Jenny, a love-crazy chick who is not above chicanery to satisfy her string of uninteresting boyfriends. She thinks she finds something in gang boss Tsui Kam-Kong , but the guy dies in a fight after some alleyway action with Jenny. She ends up meeting nice guy Leung Si-Ho, but their eventual reunion is subject to numberous comic devices designed to keep them apart. And, various friends of Jenny together with Leung's sister appear to disrobe and provide all the necessary softcore sex this flick needs.

>>Watch or Download>> Girls Unbutton 1994 (Hong Kong) (HQ) [Download]

Order Vintagepornbay Premium to Get Access to Downloads for Porn Content