Hits: 125 views
1 Star2 Stars3 Stars4 Stars5 Stars (No Ratings Yet)
Loading...

Shane’s World 26: Toga Party (2000) [Watch & Download]

Download and Watch This Porn Content Now

Shane's World 26: Toga Party (2000)

We found our fan pick at a fraternity. He joined us for this wild beer-bong orgy fuck fest. He even got in on the action. You'll see Sky fuck Nacho, a shitload of group sex, Toga sex, people getting wasted and a whole lotta vagina. Don't miss it!

Director:
Shane

Distributor:
Odyssey

Scene Breakdowns:
Scene 1. Samantha Stylle, Billy Glide
Scene 2. Samantha Stylle, Jason McCain, Nacho Vidal
Scene 3. Kiri, Samantha Stylle, Jason McCain, Nacho Vidal
Scene 4. Bailey, Steve
Scene 5. Bailey, Nicole, Sky, Max Steele
Scene 6. Kristina Black, Tyler Lane
Scene 7. Sky, Nacho Vidal
Scene 8. Bailey, Max Steele
Scene 9. Kristina Black, Tyler Lane, Billy Glide
Scene 10. Vivian Valentine, Nacho Vidal
Scene 11. Tabitha Stern, Jonathan Stern
Scene 12. Bailey, Kiri, Sky, Billy Glide, Jason McCain, Max Steele, Steve
Scene 13. Nicole, Ray-J
Scene 14. Bailey, Jason McCain
Scene 15. Kiri, Max Steele
Scene 16. Tabitha Stern, Jonathan Stern

Video Properties:
Format: MP4
Run Time: 1:32:52
Size: 1.02GB
Video: MPEG2 Video 624x480 (4:3) 29.97fps
Audio: AAC 44100Hz stereo
Language: English

>>Watch or Download>> Shane’s World 26: Toga Party (2000) [Watch & Download]

Order Vintagepornbay Premium to Get Access to Downloads for Porn Content
Hits: 204 views
1 Star2 Stars3 Stars4 Stars5 Stars (No Ratings Yet)
Loading...

Schwarzmarkt der Exzesse (1999) (Deutsche) [Download]

Download and Watch This Porn Content Now

Studio: Debora / DBM Video
Director: Gabriel Pontello (as Gabriela Ponti)
Language: German

Starring:
Nomi (as Adalina Perron)
Alana Joy
Jessica May (as Dagmar Pandora)
Lina Roche (as Juliette France)
Meridian (as Rosy Bolton)

Bruno SX (as Bruno Aissix)
Philippe Arnaud (as Cédric Malraux)
Kevin Long (as Maurice Caballero)
Ralph Nolan
Richard Langin (as Richard Lengin)

Scene 1. Alana Joy, Jessica May, Bruno SX, Kevin Long
Scene 2. Lina Roche, Philippe Arnaud
Scene 3. Nomi, Lina Roche, Ralph Nolan, Richard Langin
Scene 4. Nomi, Kevin Long, Richard Langin
Scene 5. Jessica May, Meridian
Scene 6. Alana Joy, Lina Roche, Richard Langin

avi | 720x576 | 1 part | 765 MB | 01:30:22

>>Watch or Download>> Schwarzmarkt der Exzesse (1999) (Deutsche) [Download]

Order Vintagepornbay Premium to Get Access to Downloads for Porn Content
Hits: 209 views
1 Star2 Stars3 Stars4 Stars5 Stars (No Ratings Yet)
Loading...

Scenes From a Bar (1998) (USA) [Watch & Download]

Download and Watch This Porn Content Now

Details:

Complete name : Scenes From A Bar (1998) (Kobe Tai, Alyssa Allure, Katie Gold, Caressa Savage, Johnni Black, Alexandra Silk) K-Rip.mp4
Format : MPEG-4
Format profile : Base Media
Codec ID : isom (isom/avc1)
File size : 893 MiB
Duration : 1 h 14 min
Overall bit rate mode : Variable
Overall bit rate : 1 675 kb/s
Encoded date : UTC 2018-07-12 10:24:15
Tagged date : UTC 2018-07-12 10:24:15

Video
ID : 1
Format : AVC
Format/Info : Advanced Video Codec
Format profile : [email protected]
Format settings : CABAC / 5 Ref Frames
Format settings, CABAC : Yes
Format settings, RefFrames : 5 frames
Codec ID : avc1
Codec ID/Info : Advanced Video Coding
Duration : 1 h 14 min
Bit rate : 1 542 kb/s
Maximum bit rate : 4 474 kb/s
Width : 640 pixels
Height : 432 pixels
Display aspect ratio : 4:3
Original display aspect ratio : 4:3
Frame rate mode : Constant
Frame rate : 29.970 (30000/1001) FPS
Color space : YUV
Chroma subsampling : 4:2:0
Bit depth : 8 bits
Scan type : Progressive
Bits/(Pixel*Frame) : 0.186
Stream size : 822 MiB (92%)
Writing library : x264 core 155 r2901 7d0ff22

>>Watch or Download>> Scenes From a Bar (1998) (USA) [Watch & Download]

Order Vintagepornbay Premium to Get Access to Downloads for Porn Content
Hits: 226 views
1 Star2 Stars3 Stars4 Stars5 Stars (No Ratings Yet)
Loading...

Junggeselles Party 3 (Deutsche) (2000s) [Download]

Download and Watch This Porn Content Now

1:20:59 h mkv movie (700x576)
350 mb rar + 344 mb rar

>>Watch or Download>> Junggeselles Party 3 (Deutsche) (2000s) [Download]

Order Vintagepornbay Premium to Get Access to Downloads for Porn Content
Hits: 371 views
1 Star2 Stars3 Stars4 Stars5 Stars (No Ratings Yet)
Loading...

High Definition (2008) [720p] [HD] [Download]

Download and Watch This Porn Content Now

Details:

Complete name : High Definition (2008) (Kara Tai, Kimberly Kole, Lela Star, McKenzee Miles, Renna Ryann, Roxy Jezel, Ruby Knox) 720p.mkv
Format : Matroska
Format version : Version 1
File size : 6.40 GiB
Duration : 2 h 46 min
Overall bit rate : 5 516 kb/s
Encoded date : UTC 2008-07-17 09:58:23
Writing application : mkvmerge v2.2.0 ('Turn It On Again') built on Mar 4 2008 12:58:26
Writing library : libebml v0.7.7 + libmatroska v0.8.1

Video
ID : 1
Format : AVC
Format/Info : Advanced Video Codec
Format profile : [email protected]
Format settings : CABAC / 5 Ref Frames
Format settings, CABAC : Yes
Format settings, RefFrames : 5 frames
Codec ID : V_MPEG4/ISO/AVC
Duration : 2 h 46 min
Bit rate : 5 320 kb/s
Width : 1 280 pixels
Height : 720 pixels
Display aspect ratio : 16:9
Frame rate mode : Constant
Frame rate : 29.970 (29970/1000) FPS
Color space : YUV
Chroma subsampling : 4:2:0
Bit depth : 8 bits
Scan type : Progressive
Bits/(Pixel*Frame) : 0.193
Stream size : 6.05 GiB (95%)
Writing library : x264 core 60 r901M 58d7d06

Language : English
>>Watch or Download>> High Definition (2008) [720p] [HD] [Download]

Order Vintagepornbay Premium to Get Access to Downloads for Porn Content
Hits: 719 views
1 Star2 Stars3 Stars4 Stars5 Stars (No Ratings Yet)
Loading...

Doppel-Anal Im Sperma-Kasino – 1999 (DE) [HQ] [Download]

Download and Watch This Porn Content Now

Here's an old Magma VHS 88615 rip, quality 7/10.

1,77GB, 1:35:36, 720x576, MKV-H.264

IB Full VHS cover and previews:

>>Watch or Download>> Doppel-Anal Im Sperma-Kasino – 1999 (DE) [HQ] [Download]

Order Vintagepornbay Premium to Get Access to Downloads for Porn Content
Hits: 436 views
1 Star2 Stars3 Stars4 Stars5 Stars (No Ratings Yet)
Loading...

Dirty Job – Complotto Carnale (ITALY) (2008) [1080p] [HD] [Download]

Download and Watch This Porn Content Now

also known as: Dirty Job: Complotto Carnale, Reglements De Comptes, Règlements de comptes

Studio: ATV
Director: Jack La Fonte
Language: Italian

Starring:
Black Angelika (as Black Angelica)
Crystal Crown
Lily Love (as Gilda Roberts)
Leanna Sweet
Priscilla Salerno
Regina Moon

Dieter Von Stein (as Diether Von Stein)
Horst Baron
Marco Nero
Omar Galanti
Ricardo Bell (as Riccardo Bell)
Thomas Stone

Scene 1. Priscilla Salerno, Ricardo Bell
Scene 2. Lily Love, Regina Moon, Horst Baron, Marco Nero
Scene 3. Leanna Sweet, Dieter Von Stein, Marco Nero
Scene 4. Black Angelika, Omar Galanti
Scene 5. Crystal Crown, Marco Nero, Thomas Stone

Details:

Complete name : [ATV] Dirty Job (2008) (Black Angelika, Crystal Crown, Leanna Sweet, Regina Moon, Priscilla Salerno, Lily Love) 1080p.mkv
Format : Matroska
Format version : Version 2
File size : 7.65 GiB
Duration : 1 h 49 min
Overall bit rate : 9 972 kb/s
Encoded date : UTC 2015-09-01 05:43:33
Writing application : mkvmerge v7.7.0 ('Six Voices') 32bit built on Feb 28 2015 23:23:00
Writing library : libebml v1.3.1 + libmatroska v1.4.2

Video
ID : 1
Format : AVC
Format/Info : Advanced Video Codec
Format profile : [email protected]
Format settings : CABAC / 4 Ref Frames
Format settings, CABAC : Yes
Format settings, RefFrames : 4 frames
Codec ID : V_MPEG4/ISO/AVC
Duration : 1 h 49 min
Bit rate : 9 780 kb/s
Width : 1 920 pixels
Height : 1 080 pixels
Display aspect ratio : 16:9
Frame rate mode : Constant
Frame rate : 25.000 FPS
Color space : YUV
Chroma subsampling : 4:2:0
Bit depth : 8 bits
Scan type : Progressive
Bits/(Pixel*Frame) : 0.189
Stream size : 7.50 GiB (98%)
Writing library : x264 core 146 r2538 121396c

>>Watch or Download>> Dirty Job – Complotto Carnale (ITALY) (2008) [1080p] [HD] [Download]

Order Vintagepornbay Premium to Get Access to Downloads for Porn Content