Page 1 of 176123...102030...Last »
Hits: 35 views

Ace Mulholland (1995) [Download]

Download and Watch This Porn Content Now

Details:

Complete name :Ace Mulholland (1995) (Chayse Manhattan, Kirsty Waay, Kylie Ireland, Lacy Rose,Tera Heart).avi
Format : AVI
Format/Info : Audio Video Interleave
File size : 1.09 GiB
Duration : 1h 27mn
Overall bit rate mode : Variable
Overall bit rate : 1 781 Kbps
Writing application : VirtualDubMod 1.5.10.2 (build 2540/release)
Writing library : VirtualDubMod build 2540/release

Video
ID : 0
Format : MPEG-4 Visual
Format profile : [email protected]
Format settings, BVOP : 2
Format settings, QPel : No
Format settings, GMC : No warppoints
Format settings, Matrix : Custom
Muxing mode : Packed bitstream
Codec ID : XVID
Codec ID/Hint : XviD
Duration : 1h 27mn
Bit rate : 1 641 Kbps
Width : 576 pixels
Height : 432 pixels
Display aspect ratio : 4:3
Frame rate : 29.970 fps
Color space : YUV
Chroma subsampling : 4:2:0
Bit depth : 8 bits
Scan type : Progressive
Compression mode : Lossy
Bits/(Pixel*Frame) : 0.220
Stream size : 1.01 GiB (92%)
Writing library : XviD 1.1.0 Beta2 (UTC 2005-04-04)

Audio
ID : 1
Format : MPEG Audio
Format version : Version 1
Format profile : Layer 3
Mode : Joint stereo
Mode extension : MS Stereo
Codec ID : 55
Codec ID/Hint : MP3
Duration : 1h 27mn
Bit rate mode : Variable
Bit rate : 128 Kbps
Channel(s) : 2 channels
Sampling rate : 48.0 KHz
Compression mode : Lossy
Stream size : 79.3 MiB (7%)
Alignment : Aligned on interleaves
Interleave, duration : 24 ms (0.72 video frame)
Interleave, preload duration : 508 ms

Notes: Older xvid encoding. A bit fuzzy and some deinterlacing artefacts. But good enough. No cover. This one was requested.

>>Watch or Download>> Ace Mulholland (1995) [Download]

Order Vintagepornbay Premium to Get Access to Downloads for Porn Content
Hits: 59 views

Valentina Ragazza in Calore (1981) (Italy) (Rare) [Download]

Download and Watch This Porn Content Now

Country: Italy
Language: Italian
Studio: Flumen Cinematografica
Duration: 01:28:59
Video: DivX 5 640x480 25.00fps 782kbps
Audio: IMA ADPCM 48000Hz stereo 386kbps
Size: 750 mb

Cast: Linda Heveret (Moana Pozzi), Guia Lauri Filzi, Nadine Roussial (Christina Maffei), Alfonso Gaita, Mark Shannon (Manlio)

UPGRADE from VOD (the previous copies are from a VHS source)

INFO
Valentina ragazza in calore.mp4; 1.1 GiB; 1 779 kb/s; 01:28:26.960
Video: avc1 @ 1 680 kb/s ; 768 x 576 (4:3); 01:28:26.960; 25.000
Audio: AAC LC at 128 kb/s; 2 channels, 44.1 kHz ITALIAN

>>Watch or Download>> Valentina Ragazza in Calore (1981) (Italy) (Rare) [Download]

Order Vintagepornbay Premium to Get Access to Downloads for Porn Content
Hits: 53 views

Lo Voglio Nero e Grosso (2011) [HD] [Download]

Download and Watch This Porn Content Now

Scene Breakdowns

Scene 1. Lindsey Olsen, Mike Angelo, Steve Holmes
Scene 2. Anna Rapace, Samuel
Scene 3. Bibi Noel, Omar Williams
Scene 4. Vittoria Risi, Omar Williams, Ian Scott
Scene 5. Anna Rapace

Audio - English

1.80 GB
02:22:00
1024 x 576
25.000 fps
MP4

>>Watch or Download>> Lo Voglio Nero e Grosso (2011) [HD] [Download]

Order Vintagepornbay Premium to Get Access to Downloads for Porn Content
Hits: 47 views

Model’s Memoirs (1993) – Crystal Wilder (USA) [HQ-Laser-disc] [Download]

Download and Watch This Porn Content Now

A new LaserDisc transfer.

File Size : 1.49 GB
File Type : MP4
Release Date: 1993
Language: English
Resolution : 720x480
Duration : 01:18:44
Video : AVC (AVC, [email protected]), 2500 kb/s, 29.970 FPS
Audio : AAC (AAC LC), 192 kb/s (VBR), 48.0 kHz, 2 channels, 1 stream

>>Watch or Download>> Model’s Memoirs (1993) – Crystal Wilder (USA) [HQ-Laser-disc] [Download]

Order Vintagepornbay Premium to Get Access to Downloads for Porn Content