Page 1 of 27123...1020...Last »
1 Star2 Stars3 Stars4 Stars5 Stars (1 votes, average: 3.00 out of 5)
Loading...
Hits: 469 views

My Stepson Fucked Me Hard on our old Vacation

Download and Watch This Porn Content Now

He fucks his Stepmom very hard on their old/vintage Vacation in an Hotel:

>>Watch or Download>> My Stepson Fucked Me Hard on our old Vacation

Order Vintagepornbay Premium to Get Access to Downloads for Porn Content
1 Star2 Stars3 Stars4 Stars5 Stars (1 votes, average: 3.00 out of 5)
Loading...
Hits: 891 views

Sunny McKay from ” Paler Shade Of Blue ” 1990 scene 1 [Watch Online]

Download and Watch This Porn Content Now

Sunny McKay, Joey Silvera from " Paler Shade Of Blue " 1990 scene 1 [Watch Porn Scene Online]:

mp4 - 624 x 480 - 158 mb - plays for 17:50m

>>Watch or Download>> Sunny McKay from ” Paler Shade Of Blue ” 1990 scene 1 [Watch Online]

Order Vintagepornbay Premium to Get Access to Downloads for Porn Content
1 Star2 Stars3 Stars4 Stars5 Stars (1 votes, average: 5.00 out of 5)
Loading...
Hits: 896 views

Merle Michaels from ” Outlaw Ladies 1 ” 1981 scene 4 [Watch Online]

Download and Watch This Porn Content Now

Merle Michaels with R. Bolla from " Outlaw Ladies 1 " 1981 scene 4 [Watch Porn Scene Online]:

>>Watch or Download>> Merle Michaels from ” Outlaw Ladies 1 ” 1981 scene 4 [Watch Online]

Order Vintagepornbay Premium to Get Access to Downloads for Porn Content
1 Star2 Stars3 Stars4 Stars5 Stars (1 votes, average: 5.00 out of 5)
Loading...
Hits: 686 views

Layla Jade from ” 18 and Lost in Denver ” 2002 scene 2 [Watch Online]

Download and Watch This Porn Content Now

Layla Jade, Kyle Stone from " 18 and Lost in Denver " 2002 scene 2

mp4 - 640 x 480 - 136 mb - plays for 15:38m

>>Watch or Download>> Layla Jade from ” 18 and Lost in Denver ” 2002 scene 2 [Watch Online]

Order Vintagepornbay Premium to Get Access to Downloads for Porn Content
1 Star2 Stars3 Stars4 Stars5 Stars (1 votes, average: 4.00 out of 5)
Loading...
Hits: 680 views

Celeste with everybody from “Hollywood Scandal” 1993 scene 5 [Watch Online]

Download and Watch This Porn Content Now

Celeste with everybody from " Hollywood Scandal " 1993 scene 5
Some of the others are Kaitln Ashley, Rebecca Wild, Beverly Glen, Steven St. Croix and Woody Long

mp4 - 640 x 480 - 209 mb - plays for 17:32m

>>Watch or Download>> Celeste with everybody from “Hollywood Scandal” 1993 scene 5 [Watch Online]

Order Vintagepornbay Premium to Get Access to Downloads for Porn Content
1 Star2 Stars3 Stars4 Stars5 Stars (1 votes, average: 5.00 out of 5)
Loading...
Hits: 1,065 views

Deep Focus (1996) [Vintage Movie] [HQ] [Watch & Download]

Download and Watch This Porn Content Now

Deep Focus (1996) [Vintage Movie] [HQ]:

Details:

Complete name : Deep Focus (1996) (Marine Cartier, Jill Kelly, Busty Brittany, Alex Dane, Lana Sands, Kim Kataine, Nancy Vee, Madelyn Night) Buzz (Dvd Re-Release)
Format : AVI
Format/Info : Audio Video Interleave
File size : 1.05 GiB
Duration : 1h 29mn
Overall bit rate : 1 680 Kbps
Writing application : VirtualDubMod 1.5.10.2 (build 2540/release)
Writing library : VirtualDubMod build 2540/release

Video
ID : 0
Format : MPEG-4 Visual
Format profile : Advanced [email protected]
Format settings, BVOP : 2
Format settings, QPel : No
Format settings, GMC : No warppoints
Format settings, Matrix : Default (H.263)
Codec ID : XVID
Codec ID/Hint : XviD
Duration : 1h 29mn
Bit rate : 1 541 Kbps
Width : 576 pixels
Height : 432 pixels
Display aspect ratio : 4:3
Frame rate : 29.970 fps
Color space : YUV
Chroma subsampling : 4:2:0
Bit depth : 8 bits
Scan type : Progressive
Compression mode : Lossy
Bits/(Pixel*Frame) : 0.207
Stream size : 982 MiB (92%)
Writing library : XviD 1.1.0 (UTC 2005-11-22)

Audio
ID : 1
Format : MPEG Audio
Format version : Version 1
Format profile : Layer 3
Mode : Joint stereo
Codec ID : 55
Codec ID/Hint : MP3
Duration : 1h 29mn
Bit rate mode : Constant
Bit rate : 32.0 Kbps
Channel(s) : 2 channels
Sampling rate : 48.0 KHz
Compression mode : Lossy
Stream size : 79.8 MiB (7%)
Alignment : Aligned on interleaves
Interleave, duration : 24 ms (0.72 video frame)
Interleave, preload duration : 128 ms
Writing library : LAME3.90.3

>>Watch or Download>> Deep Focus (1996) [Vintage Movie] [HQ] [Watch & Download]

Order Vintagepornbay Premium to Get Access to Downloads for Porn Content
1 Star2 Stars3 Stars4 Stars5 Stars (No Ratings Yet)
Loading...
Hits: 709 views

Tina Tyler, Randy Spears from ” XXX Trek: The Maneater ” 1999 scene 5 [Watch Online]

Download and Watch This Porn Content Now

Tina Tyler, Randy Spears from " XXX Trek: The Maneater " 1999 scene 5

mp4 - 640 x 480 - 147 mb - plays for 17_03m - Watch Online:

>>Watch or Download>> Tina Tyler, Randy Spears from ” XXX Trek: The Maneater ” 1999 scene 5 [Watch Online]

Order Vintagepornbay Premium to Get Access to Downloads for Porn Content