Hits: 143 views
1 Star2 Stars3 Stars4 Stars5 Stars (No Ratings Yet)
Loading...

AB-5340 HOT ORGY STEPFAMILY by Tom Allison (1982) [E-Book] [Download]

Download and Watch This Porn Content Now

Vintagepornbay.com AB-5340 HOT ORGY STEPFAMILY by Tom Allison

FOREWORD

It was Henry David Thoreau, in Walden, who remarked, “The mass of men lead lives of quiet desperation.” This statement appears to be just as true today as it was then. Perhaps it is even more valid today considering the pressures and frequent monotony of today’s world.

The majority of today’s men and women live in boring circumstances, and when the opportunity for change arises, they are often quick to seize the chance. For the characters in this story, the opportunity is one which many would consider perverse and deranged, for it is one of in**st. But it provides a release and a need. All morals and scruples are cast aside in a moment of madness — a chance to grab pleasure before it is taken away.

HOT ORGY STEPFAMILY is a novel about the quiet desperation in so many of us and the extremes to which it may drive us...:

>>Watch or Download>> AB-5340 HOT ORGY STEPFAMILY by Tom Allison (1982) [E-Book] [Download]

Order Vintagepornbay Premium to Get Access to Downloads for Porn Content
Hits: 113 views
1 Star2 Stars3 Stars4 Stars5 Stars (1 votes, average: 5.00 out of 5)
Loading...

Ab-5308 Orgy with the Neighbors (Mark Carver) (1981) [E-Book] [Download]

Download and Watch This Porn Content Now

Vintagepornbay.com AB-5308 ORGY WITH THE NEIGHBORS by Mark Carver

FOREWORD

Of all the social institutions which have had to endure change and weather criticism, the step-family concept is, perhaps, the most pronounced. Subjected to the undermining fo**es of alco***ism, the use of dr**s and mar**na, and the advent of mate-swapping, the family unit has undergone immeasurable challenge in the wake of social advancement.

ORGY WITH THE NEIGHBORS is the story of how some people adjust to the liberated moral standards within the family unit. Beset by such common problems as divorce, jealousy, age differences, and unfaithfulness, the characters in this story find an unusual solution to their dilemma. Their method, that of inc**t, may well be considered unusual or shocking, but is nonetheless successful.

ORGY WITH THE NEIGHBORS — a novel of fiction for entertainment. A reminder that what is debased and perverted for some may well be normal for others.

>>Watch or Download>> Ab-5308 Orgy with the Neighbors (Mark Carver) (1981) [E-Book] [Download]

Order Vintagepornbay Premium to Get Access to Downloads for Porn Content
Hits: 170 views
1 Star2 Stars3 Stars4 Stars5 Stars (No Ratings Yet)
Loading...

High Definition (2008) [720p] [HD] [Download]

Download and Watch This Porn Content Now

Details:

Complete name : High Definition (2008) (Kara Tai, Kimberly Kole, Lela Star, McKenzee Miles, Renna Ryann, Roxy Jezel, Ruby Knox) 720p.mkv
Format : Matroska
Format version : Version 1
File size : 6.40 GiB
Duration : 2 h 46 min
Overall bit rate : 5 516 kb/s
Encoded date : UTC 2008-07-17 09:58:23
Writing application : mkvmerge v2.2.0 ('Turn It On Again') built on Mar 4 2008 12:58:26
Writing library : libebml v0.7.7 + libmatroska v0.8.1

Video
ID : 1
Format : AVC
Format/Info : Advanced Video Codec
Format profile : [email protected]
Format settings : CABAC / 5 Ref Frames
Format settings, CABAC : Yes
Format settings, RefFrames : 5 frames
Codec ID : V_MPEG4/ISO/AVC
Duration : 2 h 46 min
Bit rate : 5 320 kb/s
Width : 1 280 pixels
Height : 720 pixels
Display aspect ratio : 16:9
Frame rate mode : Constant
Frame rate : 29.970 (29970/1000) FPS
Color space : YUV
Chroma subsampling : 4:2:0
Bit depth : 8 bits
Scan type : Progressive
Bits/(Pixel*Frame) : 0.193
Stream size : 6.05 GiB (95%)
Writing library : x264 core 60 r901M 58d7d06

Language : English
>>Watch or Download>> High Definition (2008) [720p] [HD] [Download]

Order Vintagepornbay Premium to Get Access to Downloads for Porn Content
Hits: 271 views
1 Star2 Stars3 Stars4 Stars5 Stars (No Ratings Yet)
Loading...

Dirty Job – Complotto Carnale (ITALY) (2008) [1080p] [HD] [Download]

Download and Watch This Porn Content Now

also known as: Dirty Job: Complotto Carnale, Reglements De Comptes, Règlements de comptes

Studio: ATV
Director: Jack La Fonte
Language: Italian

Starring:
Black Angelika (as Black Angelica)
Crystal Crown
Lily Love (as Gilda Roberts)
Leanna Sweet
Priscilla Salerno
Regina Moon

Dieter Von Stein (as Diether Von Stein)
Horst Baron
Marco Nero
Omar Galanti
Ricardo Bell (as Riccardo Bell)
Thomas Stone

Scene 1. Priscilla Salerno, Ricardo Bell
Scene 2. Lily Love, Regina Moon, Horst Baron, Marco Nero
Scene 3. Leanna Sweet, Dieter Von Stein, Marco Nero
Scene 4. Black Angelika, Omar Galanti
Scene 5. Crystal Crown, Marco Nero, Thomas Stone

Details:

Complete name : [ATV] Dirty Job (2008) (Black Angelika, Crystal Crown, Leanna Sweet, Regina Moon, Priscilla Salerno, Lily Love) 1080p.mkv
Format : Matroska
Format version : Version 2
File size : 7.65 GiB
Duration : 1 h 49 min
Overall bit rate : 9 972 kb/s
Encoded date : UTC 2015-09-01 05:43:33
Writing application : mkvmerge v7.7.0 ('Six Voices') 32bit built on Feb 28 2015 23:23:00
Writing library : libebml v1.3.1 + libmatroska v1.4.2

Video
ID : 1
Format : AVC
Format/Info : Advanced Video Codec
Format profile : [email protected]
Format settings : CABAC / 4 Ref Frames
Format settings, CABAC : Yes
Format settings, RefFrames : 4 frames
Codec ID : V_MPEG4/ISO/AVC
Duration : 1 h 49 min
Bit rate : 9 780 kb/s
Width : 1 920 pixels
Height : 1 080 pixels
Display aspect ratio : 16:9
Frame rate mode : Constant
Frame rate : 25.000 FPS
Color space : YUV
Chroma subsampling : 4:2:0
Bit depth : 8 bits
Scan type : Progressive
Bits/(Pixel*Frame) : 0.189
Stream size : 7.50 GiB (98%)
Writing library : x264 core 146 r2538 121396c

>>Watch or Download>> Dirty Job – Complotto Carnale (ITALY) (2008) [1080p] [HD] [Download]

Order Vintagepornbay Premium to Get Access to Downloads for Porn Content
Hits: 703 views
1 Star2 Stars3 Stars4 Stars5 Stars (No Ratings Yet)
Loading...

Plainte Contre X Les Vices du Professeur [1994] [HQ] [Download]

Download and Watch This Porn Content Now

A real explosion in the world of X movies! Mario Salieri has come up with a brand new and particularly hard, perverse concept: REALITY SEX! We might as well warn you right away: this revolting, diabolical and unhealthy story, as hard and humiliating as it might be, is in fact based on a true story and is guaranteed to shock your pants off! Not recommended for the weak of heart.

Director : Mario Salieri

Actresses :

Beatrice Valle [Anal Bald]
Lydia Chanel (as Giulia Chanel) [Anal Facial]
Maria Liberato
Rebecca Lord (as Rebecca) [Facial]
Regina Wallstedt (as Regina Mc Davis)
Selen [Facial DP]
Simona Valli [Anal DP]

NonSex Performers :

Angela Pintus
Anna Levi
Gabriella Finizio
Rosa Giampaolo
Unknown Female A
Unknown Female B

Actors :

Francesco Malcom
Jean-Yves Le Castel (as Joe Calzone)
John Walton (as Jolth Walton)
Richard Langin (as Richard Voicin)
Roberto Malone (as Robert Malone)
Wilfried De Renzi

NonSex Performers :

Antonio Porfiro
Ennio Zeri
Luigi Barbato
Massimo Palazzi
Mauro Imperato
Nicola Asturaro
Sandro Oliva
Sergio Marchetti
Unknown Male A
Unknown Male B
Unknown Male C
Unknown Male D

Res : 720 X 544
Length : 1:05.07
Size : 1.05 Gb
Format : MKV
Studio : Mario Salieri Entertainment Group
Langauge: English Dub
Lagerlout

>>Watch or Download>> Plainte Contre X Les Vices du Professeur [1994] [HQ] [Download]

Order Vintagepornbay Premium to Get Access to Downloads for Porn Content
Hits: 592 views
1 Star2 Stars3 Stars4 Stars5 Stars (No Ratings Yet)
Loading...

Desire Kills (1996) (US) [High Quality] [Download]

Download and Watch This Porn Content Now

Cast:
Danyel Cheeks
Micky Lynn
Lyndon Johnson (Angel)
Montana
Brooke Walters
Jessica Ravage
Tina Sioux
Randi Hart
Tina Perez
Marc Wallice
Tom Byron
Jim Sparks
Jay Ashley

Description:
Plot:
Capable of murder by using sex as her only weapon.

Since Helen of Troy and Cleopatra, women have led good men to disaster. Will a basically good police officer choose "the good girl" or her evil double. As our detective Chris tries to solve the riddle of the passion murderess, the bodies at Angel's Hollywood orgies continue to mount. Will he maintain his professionalism and return to his "good" girl at home or go "undercover" into the maw of the orgies to seek his fate. Does the good cop solve the murders or fall prey to the depravity?

File Size : 1.45 GB
File Type : MP4
Release Date: 1996
Studio: Summit Pictures
Language: English
Resolution : 710x540
Duration : 01:20:08
Video : AVC (AVC, [email protected]), 2400 kb/s, 29.970 (30000/1001) fps >>Watch or Download>> Desire Kills (1996) (US) [High Quality] [Download]

Order Vintagepornbay Premium to Get Access to Downloads for Porn Content
Hits: 894 views
1 Star2 Stars3 Stars4 Stars5 Stars (No Ratings Yet)
Loading...

Ballets roses pour couples vicieux (1984) [HQ] [FR] [Download]

Download and Watch This Porn Content Now

Here finally a decent version for this movie.

Actresses

Saphora
XNK5203 plays Marianne (the college-girl of Jean-Pierre Armand's character), lesbian scenes and masturbation only
XNK5204
XNK7170 girl who picks up J-P Armand in the disco

Actors

Jean-Pierre Armand (the main male character)
Alain L'Yle
others in both sex and non-sex roles, the former in an orgy scene

Other females also appeared. Some in the orgy scene who could not be capped. Some as extras in the disco scenes.
In spite of what it says on Encyclocine, Marianne Aubert does not appear in this video.

Format: avi
Size: 574 Mb
Resol: 640x480
Length: 01:02:23 ( 59 min.+ trailer)
Lang: French
Quality: More than acceptable for images & colors

Credits as above.

>>Watch or Download>> Ballets roses pour couples vicieux (1984) [HQ] [FR] [Download]

Order Vintagepornbay Premium to Get Access to Downloads for Porn Content