Hits: 133 views
1 Star2 Stars3 Stars4 Stars5 Stars (No Ratings Yet)
Loading...

Black Tie Affair (1976) (USA) (Rare) [HQ] [Watch & Download]

Download and Watch This Porn Content Now

A new VHS transfer.

This is a Ray Dennis Steckler film (under the pseudonym of Cindy Lou Sutters). Steckler was known for recycling of footage and much of this movie seems to share similarities with his 1976 film Sex Rink. However, while similar the footage appears to be different.

File Size : 903.23 GB
File Type : MP4
Release Date: 1976
Language: English
Resolution : 720x480
Duration : 00:57:20
Video : AVC (AVC, [email protected]), 2000 kb/s, 29.970 FPS
Audio : AAC (AAC LC), 192 kb/s (VBR), 48.0 kHz, 2 channels, 1 stream

>>Watch or Download>> Black Tie Affair (1976) (USA) (Rare) [HQ] [Watch & Download]

Order Vintagepornbay Premium to Get Access to Downloads for Porn Content
Hits: 121 views
1 Star2 Stars3 Stars4 Stars5 Stars (No Ratings Yet)
Loading...

Arena Total 5 – Sperma-Geburtstag (2005) (Deutsche) [Download]

Download and Watch This Porn Content Now

Cast: Sexi Susi (aka Susanne Nigbezsmietan), Yvette-Patrice (aka Nicole Wiebach), Pi*** Olli, a.o.

The GB movie “Arena total 5 - Sperma-Geburtstag” (cat.No.18355) was released by Inflagranti in 2005. Direct German sound.

Studio: Inflagranti
Language: German

Starring:
Ivette W.
Sexy Susi

mp4 | 512x384 | 1 part | 372 MB | 01:29:55

>>Watch or Download>> Arena Total 5 – Sperma-Geburtstag (2005) (Deutsche) [Download]

Order Vintagepornbay Premium to Get Access to Downloads for Porn Content
Hits: 198 views
1 Star2 Stars3 Stars4 Stars5 Stars (No Ratings Yet)
Loading...

AB-5340 HOT ORGY STEPFAMILY by Tom Allison (1982) [E-Book] [Download]

Download and Watch This Porn Content Now

Vintagepornbay.com AB-5340 HOT ORGY STEPFAMILY by Tom Allison

FOREWORD

It was Henry David Thoreau, in Walden, who remarked, “The mass of men lead lives of quiet desperation.” This statement appears to be just as true today as it was then. Perhaps it is even more valid today considering the pressures and frequent monotony of today’s world.

The majority of today’s men and women live in boring circumstances, and when the opportunity for change arises, they are often quick to seize the chance. For the characters in this story, the opportunity is one which many would consider perverse and deranged, for it is one of in**st. But it provides a release and a need. All morals and scruples are cast aside in a moment of madness — a chance to grab pleasure before it is taken away.

HOT ORGY STEPFAMILY is a novel about the quiet desperation in so many of us and the extremes to which it may drive us...:

>>Watch or Download>> AB-5340 HOT ORGY STEPFAMILY by Tom Allison (1982) [E-Book] [Download]

Order Vintagepornbay Premium to Get Access to Downloads for Porn Content
Hits: 194 views
1 Star2 Stars3 Stars4 Stars5 Stars (1 votes, average: 5.00 out of 5)
Loading...

Ab-5308 Orgy with the Neighbors (Mark Carver) (1981) [E-Book] [Download]

Download and Watch This Porn Content Now

Vintagepornbay.com AB-5308 ORGY WITH THE NEIGHBORS by Mark Carver

FOREWORD

Of all the social institutions which have had to endure change and weather criticism, the step-family concept is, perhaps, the most pronounced. Subjected to the undermining fo**es of alco***ism, the use of dr**s and mar**na, and the advent of mate-swapping, the family unit has undergone immeasurable challenge in the wake of social advancement.

ORGY WITH THE NEIGHBORS is the story of how some people adjust to the liberated moral standards within the family unit. Beset by such common problems as divorce, jealousy, age differences, and unfaithfulness, the characters in this story find an unusual solution to their dilemma. Their method, that of inc**t, may well be considered unusual or shocking, but is nonetheless successful.

ORGY WITH THE NEIGHBORS — a novel of fiction for entertainment. A reminder that what is debased and perverted for some may well be normal for others.

>>Watch or Download>> Ab-5308 Orgy with the Neighbors (Mark Carver) (1981) [E-Book] [Download]

Order Vintagepornbay Premium to Get Access to Downloads for Porn Content
Hits: 264 views
1 Star2 Stars3 Stars4 Stars5 Stars (No Ratings Yet)
Loading...

High Definition (2008) [720p] [HD] [Download]

Download and Watch This Porn Content Now

Details:

Complete name : High Definition (2008) (Kara Tai, Kimberly Kole, Lela Star, McKenzee Miles, Renna Ryann, Roxy Jezel, Ruby Knox) 720p.mkv
Format : Matroska
Format version : Version 1
File size : 6.40 GiB
Duration : 2 h 46 min
Overall bit rate : 5 516 kb/s
Encoded date : UTC 2008-07-17 09:58:23
Writing application : mkvmerge v2.2.0 ('Turn It On Again') built on Mar 4 2008 12:58:26
Writing library : libebml v0.7.7 + libmatroska v0.8.1

Video
ID : 1
Format : AVC
Format/Info : Advanced Video Codec
Format profile : [email protected]
Format settings : CABAC / 5 Ref Frames
Format settings, CABAC : Yes
Format settings, RefFrames : 5 frames
Codec ID : V_MPEG4/ISO/AVC
Duration : 2 h 46 min
Bit rate : 5 320 kb/s
Width : 1 280 pixels
Height : 720 pixels
Display aspect ratio : 16:9
Frame rate mode : Constant
Frame rate : 29.970 (29970/1000) FPS
Color space : YUV
Chroma subsampling : 4:2:0
Bit depth : 8 bits
Scan type : Progressive
Bits/(Pixel*Frame) : 0.193
Stream size : 6.05 GiB (95%)
Writing library : x264 core 60 r901M 58d7d06

Language : English
>>Watch or Download>> High Definition (2008) [720p] [HD] [Download]

Order Vintagepornbay Premium to Get Access to Downloads for Porn Content
Hits: 341 views
1 Star2 Stars3 Stars4 Stars5 Stars (No Ratings Yet)
Loading...

Dirty Job – Complotto Carnale (ITALY) (2008) [1080p] [HD] [Download]

Download and Watch This Porn Content Now

also known as: Dirty Job: Complotto Carnale, Reglements De Comptes, Règlements de comptes

Studio: ATV
Director: Jack La Fonte
Language: Italian

Starring:
Black Angelika (as Black Angelica)
Crystal Crown
Lily Love (as Gilda Roberts)
Leanna Sweet
Priscilla Salerno
Regina Moon

Dieter Von Stein (as Diether Von Stein)
Horst Baron
Marco Nero
Omar Galanti
Ricardo Bell (as Riccardo Bell)
Thomas Stone

Scene 1. Priscilla Salerno, Ricardo Bell
Scene 2. Lily Love, Regina Moon, Horst Baron, Marco Nero
Scene 3. Leanna Sweet, Dieter Von Stein, Marco Nero
Scene 4. Black Angelika, Omar Galanti
Scene 5. Crystal Crown, Marco Nero, Thomas Stone

Details:

Complete name : [ATV] Dirty Job (2008) (Black Angelika, Crystal Crown, Leanna Sweet, Regina Moon, Priscilla Salerno, Lily Love) 1080p.mkv
Format : Matroska
Format version : Version 2
File size : 7.65 GiB
Duration : 1 h 49 min
Overall bit rate : 9 972 kb/s
Encoded date : UTC 2015-09-01 05:43:33
Writing application : mkvmerge v7.7.0 ('Six Voices') 32bit built on Feb 28 2015 23:23:00
Writing library : libebml v1.3.1 + libmatroska v1.4.2

Video
ID : 1
Format : AVC
Format/Info : Advanced Video Codec
Format profile : [email protected]
Format settings : CABAC / 4 Ref Frames
Format settings, CABAC : Yes
Format settings, RefFrames : 4 frames
Codec ID : V_MPEG4/ISO/AVC
Duration : 1 h 49 min
Bit rate : 9 780 kb/s
Width : 1 920 pixels
Height : 1 080 pixels
Display aspect ratio : 16:9
Frame rate mode : Constant
Frame rate : 25.000 FPS
Color space : YUV
Chroma subsampling : 4:2:0
Bit depth : 8 bits
Scan type : Progressive
Bits/(Pixel*Frame) : 0.189
Stream size : 7.50 GiB (98%)
Writing library : x264 core 146 r2538 121396c

>>Watch or Download>> Dirty Job – Complotto Carnale (ITALY) (2008) [1080p] [HD] [Download]

Order Vintagepornbay Premium to Get Access to Downloads for Porn Content
Hits: 818 views
1 Star2 Stars3 Stars4 Stars5 Stars (No Ratings Yet)
Loading...

Plainte Contre X Les Vices du Professeur [1994] [HQ] [Download]

Download and Watch This Porn Content Now

A real explosion in the world of X movies! Mario Salieri has come up with a brand new and particularly hard, perverse concept: REALITY SEX! We might as well warn you right away: this revolting, diabolical and unhealthy story, as hard and humiliating as it might be, is in fact based on a true story and is guaranteed to shock your pants off! Not recommended for the weak of heart.

Director : Mario Salieri

Actresses :

Beatrice Valle [Anal Bald]
Lydia Chanel (as Giulia Chanel) [Anal Facial]
Maria Liberato
Rebecca Lord (as Rebecca) [Facial]
Regina Wallstedt (as Regina Mc Davis)
Selen [Facial DP]
Simona Valli [Anal DP]

NonSex Performers :

Angela Pintus
Anna Levi
Gabriella Finizio
Rosa Giampaolo
Unknown Female A
Unknown Female B

Actors :

Francesco Malcom
Jean-Yves Le Castel (as Joe Calzone)
John Walton (as Jolth Walton)
Richard Langin (as Richard Voicin)
Roberto Malone (as Robert Malone)
Wilfried De Renzi

NonSex Performers :

Antonio Porfiro
Ennio Zeri
Luigi Barbato
Massimo Palazzi
Mauro Imperato
Nicola Asturaro
Sandro Oliva
Sergio Marchetti
Unknown Male A
Unknown Male B
Unknown Male C
Unknown Male D

Res : 720 X 544
Length : 1:05.07
Size : 1.05 Gb
Format : MKV
Studio : Mario Salieri Entertainment Group
Langauge: English Dub
Lagerlout

>>Watch or Download>> Plainte Contre X Les Vices du Professeur [1994] [HQ] [Download]

Order Vintagepornbay Premium to Get Access to Downloads for Porn Content