Hits: 29 views
1 Star2 Stars3 Stars4 Stars5 Stars (No Ratings Yet)
Loading...

Gieriges Verlangen (1994) (German) [HQ] [Download]

Download and Watch This Porn Content Now

Language: German
Format: avi
Duration: 01:23:51
Video: DivX 5 720x576 29.97fps 1499kbps
Audio: MPEG Audio Layer 3 44100Hz stereo 128kbps
Size: 984 mb

>>Watch or Download>> Gieriges Verlangen (1994) (German) [HQ] [Download]

Order Vintagepornbay Premium to Get Access to Downloads for Porn Content
Hits: 23 views
1 Star2 Stars3 Stars4 Stars5 Stars (No Ratings Yet)
Loading...

Good Vibrations (1994) (Deutsche) [Download]

Download and Watch This Porn Content Now

Language
German

Studio
DBM/Casanova

Info
Format: MP4 | File size: 428 MiB | Duration: 1hr 25mn | Width: 512 pixels Height: 384 pixels

>>Watch or Download>> Good Vibrations (1994) (Deutsche) [Download]

Order Vintagepornbay Premium to Get Access to Downloads for Porn Content
Hits: 26 views
1 Star2 Stars3 Stars4 Stars5 Stars (No Ratings Yet)
Loading...

Busty Backdoor Nurses (1996) (USA) [Download]

Download and Watch This Porn Content Now

A new doctor on the ward soon realizes he’s in heaven when he discovers that the hospital nurses are uncontrollable anal sex freaks, and every one has a body to die for. After doctors, patients are next in line as beneficiaries of the nurses’s deeply felt, humanitarian kindness. In fact, the depth of compassion around here is awe inspiring, as the nurses are often unsatisfied by just an anal injection, sometimes needing a double shot of love. Just what the doctor ordered.

Details:

Complete name : Busty Backdoor Nurses (1996) (Cherelle, Missy, Nici Sterling, Sindee Coxx, Yvonne) Bumpy.AVI
Format : AVI
Format/Info : Audio Video Interleave
File size : 1.04 GiB
Duration : 1h 17mn
Overall bit rate mode : Variable
Overall bit rate : 1 928 Kbps
Writing application : VirtualDubMod 1.5.10.1 (build 2439/release)
Writing library : VirtualDubMod build 2439/release

Video
ID : 0
Format : MPEG-4 Visual
Format profile : Advanced [email protected]
Format settings, BVOP : 2
Format settings, QPel : No
Format settings, GMC : No warppoints
Format settings, Matrix : Default (H.263)
Codec ID : XVID
Codec ID/Hint : XviD
Duration : 1h 17mn
Bit rate : 1 793 Kbps
Width : 576 pixels
Height : 432 pixels
Display aspect ratio : 4:3
Frame rate : 29.970 fps
Color space : YUV
Chroma subsampling : 4:2:0
Bit depth : 8 bits
Scan type : Progressive
Compression mode : Lossy
Bits/(Pixel*Frame) : 0.240
Stream size : 990 MiB (93%)
Writing library : XviD 1.0.3 (UTC 2004-12-20)

Audio
ID : 1
Format : MPEG Audio
Format version : Version 1
Format profile : Layer 3
Mode : Dual mono
Codec ID : 55
Codec ID/Hint : MP3
Duration : 1h 17mn
Bit rate mode : Variable
Bit rate : 120 Kbps
Nominal bit rate : 128 Kbps
Channel(s) : 2 channels
Sampling rate : 48.0 KHz
Compression mode : Lossy
Stream size : 66.4 MiB (6%)
Alignment : Aligned on interleaves
Interleave, duration : 24 ms (0.72 video frame)
Interleave, preload duration : 545 ms
Writing library : LAME3.96r
Encoding settings : -m d -V 4 -q 3 -lowpass 17.5 --abr 128

Notes: Higher resolution is not necessarily equivalent to better quality but in this case Interactive's version has a very small resolution. A 576x432 resolution version is warranted.

>>Watch or Download>> Busty Backdoor Nurses (1996) (USA) [Download]

Order Vintagepornbay Premium to Get Access to Downloads for Porn Content
Hits: 65 views
1 Star2 Stars3 Stars4 Stars5 Stars (No Ratings Yet)
Loading...

Beine breit… Die Stecher kommen (Deutsche) (1991) [Watch & Download]

Download and Watch This Porn Content Now

Starring: Heidi, Monika, Susanne, Eva, Titten Susi

1:25:51 | 768×576 | mp4 | 1266Mb

>>Watch or Download>> Beine breit… Die Stecher kommen (Deutsche) (1991) [Watch & Download]

Order Vintagepornbay Premium to Get Access to Downloads for Porn Content
Hits: 169 views
1 Star2 Stars3 Stars4 Stars5 Stars (No Ratings Yet)
Loading...

American Black Guy Fucks White Woman (1991)

Download and Watch This Porn Content Now

Scene Breakdowns

Scene 1. Jhanae, Peter North
Scene 2. Vanilla Simms, Sean Michaels
Scene 3. Jhanae, Jordan McKnight, Sean Michaels
Scene 4. Jhanae, Julian St. Jox
Scene 5. Isis Nile, Sean Michaels
Scene 6. Janet Jacme, Sean Michaels

1.05 GB
01:22:52
576 x 432 (4:3)
29.970 fps
AVI (H.264/AVC)

>>Watch or Download>> American Black Guy Fucks White Woman (1991)

Order Vintagepornbay Premium to Get Access to Downloads for Porn Content
Hits: 141 views
1 Star2 Stars3 Stars4 Stars5 Stars (No Ratings Yet)
Loading...

Headbangers Ball (1991) [HQ] [Download]

Download and Watch This Porn Content Now

Descriptión: It's 11 O'clock and I wanna rock!

Some girls prefer rock-hard to har rock.

You're about to enter the uncharted world of heavy metal; of groupies, and gropies, and things that go 'bang' in the night. Join Nikki Wilde, Madison, and friends on their quest for the perfect riff, and the ultimate stiff. So pump up the volume, and get the Ball Rolling.

This is the only Petey Balls video.

Scene 1. April Rayne, Sebastian
Scene 2. Bionca, Blake West, Petey Balls, Sebastian, Sikki Nixx
Scene 3. Madison, Nikki Wilde
Scene 4. April Rayne, Bionca, Madison, guy, Sikki Nixx
Scene 5. Nikki Wilde, Sebastian

>>Watch or Download>> Headbangers Ball (1991) [HQ] [Download]

Order Vintagepornbay Premium to Get Access to Downloads for Porn Content