Page 1 of 6123...Last »
Hits: 100 views

Sarah Young’s Private Fantasies 20 (1993) DVD5 [4.30GB] [HQ] [Download]

Download and Watch This Porn Content Now

Scene Breakdowns

Scene 1. Sarah Louise Young, Yves Baillat
Scene 2. Sunset Thomas, Jon Dough
Scene 3. Bunny Bleu, Jake Steed, Sean Michaels

Audio - English

4.30 GB
01:36:23
720 x 576
25.000 fps
VOB [ISO]

>>Watch or Download>> Sarah Young’s Private Fantasies 20 (1993) DVD5 [4.30GB] [HQ] [Download]

Order Vintagepornbay Premium to Get Access to Downloads for Porn Content
Hits: 96 views

Ace Mulholland (1995) [Download]

Download and Watch This Porn Content Now

Details:

Complete name :Ace Mulholland (1995) (Chayse Manhattan, Kirsty Waay, Kylie Ireland, Lacy Rose,Tera Heart).avi
Format : AVI
Format/Info : Audio Video Interleave
File size : 1.09 GiB
Duration : 1h 27mn
Overall bit rate mode : Variable
Overall bit rate : 1 781 Kbps
Writing application : VirtualDubMod 1.5.10.2 (build 2540/release)
Writing library : VirtualDubMod build 2540/release

Video
ID : 0
Format : MPEG-4 Visual
Format profile : [email protected]
Format settings, BVOP : 2
Format settings, QPel : No
Format settings, GMC : No warppoints
Format settings, Matrix : Custom
Muxing mode : Packed bitstream
Codec ID : XVID
Codec ID/Hint : XviD
Duration : 1h 27mn
Bit rate : 1 641 Kbps
Width : 576 pixels
Height : 432 pixels
Display aspect ratio : 4:3
Frame rate : 29.970 fps
Color space : YUV
Chroma subsampling : 4:2:0
Bit depth : 8 bits
Scan type : Progressive
Compression mode : Lossy
Bits/(Pixel*Frame) : 0.220
Stream size : 1.01 GiB (92%)
Writing library : XviD 1.1.0 Beta2 (UTC 2005-04-04)

Audio
ID : 1
Format : MPEG Audio
Format version : Version 1
Format profile : Layer 3
Mode : Joint stereo
Mode extension : MS Stereo
Codec ID : 55
Codec ID/Hint : MP3
Duration : 1h 27mn
Bit rate mode : Variable
Bit rate : 128 Kbps
Channel(s) : 2 channels
Sampling rate : 48.0 KHz
Compression mode : Lossy
Stream size : 79.3 MiB (7%)
Alignment : Aligned on interleaves
Interleave, duration : 24 ms (0.72 video frame)
Interleave, preload duration : 508 ms

Notes: Older xvid encoding. A bit fuzzy and some deinterlacing artefacts. But good enough. No cover. This one was requested.

>>Watch or Download>> Ace Mulholland (1995) [Download]

Order Vintagepornbay Premium to Get Access to Downloads for Porn Content
Hits: 141 views

Interracial: Sex And Other Games (1990) (VHS) [HQ] [Download]

Download and Watch This Porn Content Now

Sex And Other Games (1990)

Recorded from a VHS tape. The quality is reasonably good.
The main focus is interracial.

iafd info:
MINUTES
79
DIRECTORS
Gordon Vandermeer
DISTRIBUTOR
CDI Home Video

Performers:
Brittany
Kimberly Kane
Mia Powers
Rachel Ryan
Rebecca Steele

Gregor Samsa
Darryl Edwards
Sean Michaels

Scene Breakdowns
Scene 1. Mia Powers, Gregor Samsa
Scene 2. Rachel Ryan, Darryl Edwards
Scene 3. Rebecca Steele, Sean Michaels
Scene 4. Rachel Ryan, Sean Michaels
Scene 5. Kimberly Kane, Rebecca Steele

File: Sex And Other Games (1990).mp4
Size: 1226384077 bytes (1,14 GiB), duration: 01:13:14, avg.bitrate: 2233 kb/s
Audio: aac, 44100 Hz, 2 channels, s16, 159 kb/s (eng)
Video: h264, yuv420p, 640x480, 2067 kb/s, 29,97 fps(r) (eng)

>>Watch or Download>> Interracial: Sex And Other Games (1990) (VHS) [HQ] [Download]

Order Vintagepornbay Premium to Get Access to Downloads for Porn Content
Hits: 150 views

Sibylle … Im Bett Des Milliardärs (1993/4) [VHS] [Download]

Download and Watch This Porn Content Now

Director: Ralf Scott

Cast:
Females: Sibylle Rauch, Katja Reyne, Venus aka Persia, Chessie Moore,
Joana Maas, Maria Bauer, Amanda Gier (as Amanda Leer)
Males: Steve Vincent (aka Stephan Krämer), Yves Baillat, Rene Ernser (aka Rolf Ernser) as Rolf Erster

plot (German boxcover description)
Ein Traum geht in Erfüllung. Sibylle wird vom Grafen Kleix (Yves Baillat) an einen Milliardär (Rolf Erster) vermittelt. Als geiles Luxusgeschöpf erfreut sie darauf Hans mit ihrer unnachahmlichen Liebeskunst. Die Symphonie der Erotik beginnt. Der Freund des reichen Mannes (Steve Vincent) verwöhnt dann zwei Superfrauen (Marine Cartier and Amanda Gier) während Sibylle auf einer Yacht ihre Hochzeit erlebt. Der Funke des Glücks springt über und die ganze illustre Gesellschaft (mit Pam Snyder)
v*gelt fröhlich mit. Das böse Erwachen wird von Sibylle mit einem heißen Doppel (DP) kompensiert, so dass der Abschluss beim Milliardär ihr Glücksgefühl in keinster Weise beeinträchtigt.
Absolute Weltstars, Locations in Frankreich, Deutschland und Italien, sowie fernsehreife Spiel- und Hardcore-Action versprechen höchste Ekstase. Der Film ist ein absolutes Muss für Kenner!

The movie “Sibylle … Im Bett Des Milliardärs“ (Cat.No. SR105) was released by XY-V1deo (via Antana) in 1993/4.

running time: 82:50 min | filesize: 889 MB | res. 512 * 384 | Format: avi | VG quality VHS rip

>>Watch or Download>> Sibylle … Im Bett Des Milliardärs (1993/4) [VHS] [Download]

Order Vintagepornbay Premium to Get Access to Downloads for Porn Content