Page 1 of 5123...Last »
Hits: 205 views
1 Star2 Stars3 Stars4 Stars5 Stars (No Ratings Yet)
Loading...

Surrender of O (2008) [10.9 GB] [HD] [1080p] [Download]

Download and Watch This Porn Content Now

Details:

Complete name : [Adam & Eve] Surrender of O (2008) (Ava Rose, Bobbi Starr, Bree Olson, Claire Adams, Kayden Kross, Mika Tan, Nicole Sheridan, Nina Hartley, Trinity Post) 1080p.mkv
Format : Matroska
Format version : Version 4 / Version 2
File size : 10.9 GiB
Duration : 3 h 5 min
Overall bit rate : 8 436 kb/s
Encoded date : UTC 2014-03-29 15:46:28
Writing application : mkvmerge v6.6.0 ('The Edge Of The In Between') built on Dec 1 2013 17:55:00
Writing library : libebml v1.3.0 + libmatroska v1.4.1

Video
ID : 1
Format : AVC
Format/Info : Advanced Video Codec
Format profile : [email protected]
Format settings : CABAC / 4 Ref Frames
Format settings, CABAC : Yes
Format settings, RefFrames : 4 frames
Codec ID : V_MPEG4/ISO/AVC
Duration : 3 h 5 min
Bit rate : 8 244 kb/s
Width : 1 920 pixels
Height : 1 080 pixels
Display aspect ratio : 16:9
Frame rate mode : Constant
Frame rate : 29.970 (29970/1000) FPS
Color space : YUV
Chroma subsampling : 4:2:0
Bit depth : 8 bits
Scan type : Progressive
Bits/(Pixel*Frame) : 0.133
Stream size : 10.5 GiB (96%)
Title : The Surrender of O
Writing library : x264 core 142 r2409 d6b4e63

>>Watch or Download>> Surrender of O (2008) [10.9 GB] [HD] [1080p] [Download]

Order Vintagepornbay Premium to Get Access to Downloads for Porn Content
Hits: 306 views
1 Star2 Stars3 Stars4 Stars5 Stars (No Ratings Yet)
Loading...

Red Hot Virgins (1989) – Nina Hartley, Bunny Bleu (USA) (Rare) [Download]

Download and Watch This Porn Content Now

A new VHS transfer. This tape needed a lot of futzing with to get it to come out halfway decent. There's about a minute missing right after the credits because for some inexplicable reason there was a Janette Littledove phone sex ad there which edited out.

There isn't any info on this movie so unknown if it exists under another name already.

Without a box cover, the only info came from the tape label.

Studio: Erotic Video Entertainment
Director: Stuart Canterbury
Year: 1989

Starring:

Nina Hartley
Tesse Ferre
Bunny Bleu
Elle Rio
Patti Petite
Angel Kelly
Keisha
Jeanna Fine
Joey Silvera
Paul Thomas
Tom Byron

>>Watch or Download>> Red Hot Virgins (1989) – Nina Hartley, Bunny Bleu (USA) (Rare) [Download]

Order Vintagepornbay Premium to Get Access to Downloads for Porn Content
Hits: 412 views
1 Star2 Stars3 Stars4 Stars5 Stars (No Ratings Yet)
Loading...

When Ginger Met Nina (2009) – Milfs [HQ] [Download]

Download and Watch This Porn Content Now

Scene Breakdowns

Scene 1. Ginger Lynn, Nina Hartley
Scene 2. Dana DeArmond, Nina Hartley
Scene 3. Ginger Lynn, Melissa Monet

1.82 GB
02:03:30
848 x 480
30.000 fps
MP4

>>Watch or Download>> When Ginger Met Nina (2009) – Milfs [HQ] [Download]

Order Vintagepornbay Premium to Get Access to Downloads for Porn Content
Hits: 490 views
1 Star2 Stars3 Stars4 Stars5 Stars (No Ratings Yet)
Loading...

Sweet Seduction (1991) – Aja, Nina Hartley, Kristi Leigh, Lynn Lemay [Download]

Download and Watch This Porn Content Now

File Size : 857.5 MB
File Type : MP4
Release Date: 1991
Language: English
Resolution : 720x540
Duration : 00:59:41
Video : AVC (AVC, [email protected]), 1877 kb/s, 29.970 FPS
Audio : AAC (AAC LC), 192 kb/s (VBR), 48.0 kHz, 2 channels, 1 stream

>>Watch or Download>> Sweet Seduction (1991) – Aja, Nina Hartley, Kristi Leigh, Lynn Lemay [Download]

Order Vintagepornbay Premium to Get Access to Downloads for Porn Content
Hits: 626 views
1 Star2 Stars3 Stars4 Stars5 Stars (No Ratings Yet)
Loading...

Samantha Strong Number 1 (1988) (Lesbian) [HQ] [Download]

Download and Watch This Porn Content Now

Note: It's a compilation of Samantha Strong's lesbian scenes and threesomes.

Cast: Lois Ayres, Nikki Knight, Nina Hartley, Samantha Strong, Sharon Mitchell, Tami White, Hershel Savage, Scott Irish

1.20 GB
01:21:21
640 x 480
29.970 fps
MP4

>>Watch or Download>> Samantha Strong Number 1 (1988) (Lesbian) [HQ] [Download]

Order Vintagepornbay Premium to Get Access to Downloads for Porn Content
Hits: 946 views
1 Star2 Stars3 Stars4 Stars5 Stars (No Ratings Yet)
Loading...

Nina Hartley with Ron in Lethal Passion [High Quality]

Download and Watch This Porn Content Now
Nina Hartley with Ron in Lethal Passion

768x576 - 108 MB - 4:54 min- MP4

>>Watch or Download>> Nina Hartley with Ron in Lethal Passion [High Quality]

Order Vintagepornbay Premium to Get Access to Downloads for Porn Content
Hits: 1,067 views
1 Star2 Stars3 Stars4 Stars5 Stars (No Ratings Yet)
Loading...

Battle of the Titans (1986) [Rare] [Vintage Movie] [HQ] [Download]

Download and Watch This Porn Content Now

Details: Download Battle of the Titans (1986) Vintage Porn Movie (Rare):

  • Scene 1. Amber Lynn, Randy West
  • Scene 2. Nina Hartley, Steve Drake
  • Scene 3. Sade, Peter North
  • Scene 4. Amber Lynn, Peter North
  • Scene 5. Nina Hartley, Peter North
  • Scene 6. Nina Hartley, Marc Wallice
  • Scene 7. Amber Lynn, Tom Byron
  • Scene 8. Amber Lynn, Nina Hartley

Complete name : Battle of the Titans (1986) (Amber Lynn; Nina Hartley; Sade) zzzcap.mp4
Format : MPEG-4
Format profile : Base Media
Codec ID : isom (isom/avc1)
File size : 908 MiB
Duration : 1 h 17 min
Overall bit rate mode : Variable
Overall bit rate : 1 643 kb/s
Encoded date : UTC 2015-11-22 03:34:19
Tagged date : UTC 2015-11-22 03:34:19

Video
ID : 1
Format : AVC
Format/Info : Advanced Video Codec
Format profile : [email protected]
Format settings, CABAC : Yes
Format settings, ReFrames : 8 frames
Codec ID : avc1
Codec ID/Info : Advanced Video Coding
Duration : 1 h 17 min
Bit rate : 1 558 kb/s
Maximum bit rate : 8 421 kb/s
Width : 640 pixels
Height : 480 pixels
Display aspect ratio : 4:3
Frame rate mode : Constant
Frame rate : 29.970 (29970/1000) FPS
Color space : YUV
Chroma subsampling : 4:2:0
Bit depth : 8 bits
Scan type : Progressive
Bits/(Pixel*Frame) : 0.169
Stream size : 861 MiB (95%)
Writing library : x264 core 125 r2200 999b753

Encoded date : UTC 2015-11-22 03:34:19
Tagged date : UTC 2015-11-22 03:34:25

>>Watch or Download>> Battle of the Titans (1986) [Rare] [Vintage Movie] [HQ] [Download]

Order Vintagepornbay Premium to Get Access to Downloads for Porn Content