Page 1 of 5123...Last »
1 Star2 Stars3 Stars4 Stars5 Stars (No Ratings Yet)
Loading...
Hits: 69 views

Sweet Seduction (1991) – Aja, Nina Hartley, Kristi Leigh, Lynn Lemay [Download]

Download and Watch This Porn Content Now

File Size : 857.5 MB
File Type : MP4
Release Date: 1991
Language: English
Resolution : 720x540
Duration : 00:59:41
Video : AVC (AVC, [email protected]), 1877 kb/s, 29.970 FPS
Audio : AAC (AAC LC), 192 kb/s (VBR), 48.0 kHz, 2 channels, 1 stream

>>Watch or Download>> Sweet Seduction (1991) – Aja, Nina Hartley, Kristi Leigh, Lynn Lemay [Download]

Order Vintagepornbay Premium to Get Access to Downloads for Porn Content
1 Star2 Stars3 Stars4 Stars5 Stars (1 votes, average: 4.00 out of 5)
Loading...
Hits: 288 views

Samantha Strong Number 1 (1988) (Lesbian) [HQ] [Download]

Download and Watch This Porn Content Now

Note: It's a compilation of Samantha Strong's lesbian scenes and threesomes.

Cast: Lois Ayres, Nikki Knight, Nina Hartley, Samantha Strong, Sharon Mitchell, Tami White, Hershel Savage, Scott Irish

1.20 GB
01:21:21
640 x 480
29.970 fps
MP4

>>Watch or Download>> Samantha Strong Number 1 (1988) (Lesbian) [HQ] [Download]

Order Vintagepornbay Premium to Get Access to Downloads for Porn Content
1 Star2 Stars3 Stars4 Stars5 Stars (No Ratings Yet)
Loading...
Hits: 715 views

Nina Hartley with Ron in Lethal Passion [High Quality]

Download and Watch This Porn Content Now
Nina Hartley with Ron in Lethal Passion

768x576 - 108 MB - 4:54 min- MP4

>>Watch or Download>> Nina Hartley with Ron in Lethal Passion [High Quality]

Order Vintagepornbay Premium to Get Access to Downloads for Porn Content
1 Star2 Stars3 Stars4 Stars5 Stars (1 votes, average: 5.00 out of 5)
Loading...
Hits: 795 views

Battle of the Titans (1986) [Rare] [Vintage Movie] [HQ] [Download]

Download and Watch This Porn Content Now

Details: Download Battle of the Titans (1986) Vintage Porn Movie (Rare):

  • Scene 1. Amber Lynn, Randy West
  • Scene 2. Nina Hartley, Steve Drake
  • Scene 3. Sade, Peter North
  • Scene 4. Amber Lynn, Peter North
  • Scene 5. Nina Hartley, Peter North
  • Scene 6. Nina Hartley, Marc Wallice
  • Scene 7. Amber Lynn, Tom Byron
  • Scene 8. Amber Lynn, Nina Hartley

Complete name : Battle of the Titans (1986) (Amber Lynn; Nina Hartley; Sade) zzzcap.mp4
Format : MPEG-4
Format profile : Base Media
Codec ID : isom (isom/avc1)
File size : 908 MiB
Duration : 1 h 17 min
Overall bit rate mode : Variable
Overall bit rate : 1 643 kb/s
Encoded date : UTC 2015-11-22 03:34:19
Tagged date : UTC 2015-11-22 03:34:19

Video
ID : 1
Format : AVC
Format/Info : Advanced Video Codec
Format profile : [email protected]
Format settings, CABAC : Yes
Format settings, ReFrames : 8 frames
Codec ID : avc1
Codec ID/Info : Advanced Video Coding
Duration : 1 h 17 min
Bit rate : 1 558 kb/s
Maximum bit rate : 8 421 kb/s
Width : 640 pixels
Height : 480 pixels
Display aspect ratio : 4:3
Frame rate mode : Constant
Frame rate : 29.970 (29970/1000) FPS
Color space : YUV
Chroma subsampling : 4:2:0
Bit depth : 8 bits
Scan type : Progressive
Bits/(Pixel*Frame) : 0.169
Stream size : 861 MiB (95%)
Writing library : x264 core 125 r2200 999b753

Encoded date : UTC 2015-11-22 03:34:19
Tagged date : UTC 2015-11-22 03:34:25

>>Watch or Download>> Battle of the Titans (1986) [Rare] [Vintage Movie] [HQ] [Download]

Order Vintagepornbay Premium to Get Access to Downloads for Porn Content
1 Star2 Stars3 Stars4 Stars5 Stars (3 votes, average: 5.00 out of 5)
Loading...
Hits: 934 views

Mouthing Off (1996) [Watch and Download]

Download and Watch This Porn Content Now

Watch and Download Mouthing Off (1996) Vintage Porn Movie [Rare]

Details:

Complete name :Mouthing Off (1996) (Lea Stevenson, Madelyn Night, Margo Stevens, Nina Hartley, Sahara Sands) K-Rip.avi
Format : AVI
Format/Info : Audio Video Interleave
File size : 1 018 MiB
Duration : 1 h 11 min
Overall bit rate mode : Variable
Overall bit rate : 1 989 kb/s
Writing application : VirtualDubMod 1.5.10.2 (build 2540/release)
Writing library : VirtualDubMod build 2540/release

Video
ID : 0
Format : MPEG-4 Visual
Format profile : Advanced [email protected]
Format settings, BVOP : 2
Format settings, QPel : No
Format settings, GMC : No warppoints
Format settings, Matrix : Default (H.263)
Muxing mode : Packed bitstream
Codec ID : XVID
Codec ID/Hint : XviD
Duration : 1 h 11 min
Bit rate : 1 854 kb/s
Width : 576 pixels
Height : 432 pixels
Display aspect ratio : 4:3
Frame rate : 29.970 (30000/1001) FPS
Color space : YUV
Chroma subsampling : 4:2:0
Bit depth : 8 bits
Scan type : Progressive
Compression mode : Lossy
Bits/(Pixel*Frame) : 0.249
Stream size : 949 MiB (93%)
Writing library : XviD 1.1.0 (UTC 2005-11-22)

Audio
ID : 1
Format : MPEG Audio
Format version : Version 1
Format profile : Layer 3
Mode : Joint stereo
Mode extension : MS Stereo
Codec ID : 55
Codec ID/Hint : MP3
Duration : 1 h 11 min
Bit rate mode : Variable
Bit rate : 121 kb/s
Nominal bit rate : 128 kb/s
Channel(s) : 2 channels
Sampling rate : 48.0 kHz
Compression mode : Lossy
Stream size : 62.0 MiB (6%)
Alignment : Aligned on interleaves
Interleave, duration : 24 ms (0.72 video frame)
Interleave, preload duration : 554 ms
Writing library : LAME3.90.
Encoding settings : -m j -V 4 -q 2 -lowpass 17.6 --abr 128

Notes: According to iafd this was released in 1998 while production credits indicate it was filmed in 1996. Hence this is posted in the classic section.

>>Watch or Download>> Mouthing Off (1996) [Watch and Download]

Order Vintagepornbay Premium to Get Access to Downloads for Porn Content
1 Star2 Stars3 Stars4 Stars5 Stars (1 votes, average: 5.00 out of 5)
Loading...
Hits: 753 views

Deep Inside Selena Steele (1993) (USA) [Fair Quality] [Download]

Download and Watch This Porn Content Now

Download Links and File is on below:

Actresses:
Nina Hartley, Patricia Kennedy, Selena Steele, Traci Winn

Actors

Eric Price, Joey Silvera, Mike Horner, Peter North, Randy West, Rocco Siffredi, Tim Lake, Tom Chapman,
Tony Martino, T.T. Boy

1.02 GB
01:21:14
512 x 384
29.970 fps
MKV

>>Watch or Download>> Deep Inside Selena Steele (1993) (USA) [Fair Quality] [Download]

Order Vintagepornbay Premium to Get Access to Downloads for Porn Content
1 Star2 Stars3 Stars4 Stars5 Stars (No Ratings Yet)
Loading...
Hits: 1,201 views

Nina Hartley’s Guide to Foreplay (1997) (USA)

Download and Watch This Porn Content Now

Nina Hartley's Guide to Foreplay (1997) - Missy, Midori

Title: Nina Hartley's Guide to Foreplay
Street Date: 1997
Categories: Eplicit Erotic Sex Video Education & Practices
Duration: 1;15;40
Country: USA
Language: English
Cast: Nina Hartley, Mickey G., Midori, Missy

Video: DVDRip, AVI, 480x360, 823 kb/s
Audio: MP3, 2 ch, 124 kb/s
Size: 520 MB

>>Watch or Download>> Nina Hartley’s Guide to Foreplay (1997) (USA)

Order Vintagepornbay Premium to Get Access to Downloads for Porn Content