Hits: 23 views
1 Star2 Stars3 Stars4 Stars5 Stars (No Ratings Yet)
Loading...

Dirty Milf Wife Fucked in black stockings [HD] [1080p]

Download and Watch This Porn Content Now

Milf Wife Fucked in black stockings [HD]:

Jennifer Culver (Britney Amber) is upset that her husband is blowing off their weekend together to "work". Jen knows that by work he means he is going to be fucking his secretary. Well Jen has had enough of his shenanigans and decides that two can play that game so while the neighbor is over she fucks him.

>>Watch or Download>> Dirty Milf Wife Fucked in black stockings [HD] [1080p]

Order Vintagepornbay Premium to Get Access to Downloads for Porn Content
Hits: 38 views
1 Star2 Stars3 Stars4 Stars5 Stars (No Ratings Yet)
Loading...

Milf in fishnet stockings screamed & fucked in my bed [HD] [1080p]

Download and Watch This Porn Content Now

Milf in fishnet stockings screamed: >>Watch or Download>> Milf in fishnet stockings screamed & fucked in my bed [HD] [1080p]

Order Vintagepornbay Premium to Get Access to Downloads for Porn Content
Hits: 247 views
1 Star2 Stars3 Stars4 Stars5 Stars (No Ratings Yet)
Loading...

Fucking MILF in stockings at kitchen [HD] [1080p]

Download and Watch This Porn Content Now

Fucking MILF in stockings at kitchen [HD] [1080p]:

>>Watch or Download>> Fucking MILF in stockings at kitchen [HD] [1080p]

Order Vintagepornbay Premium to Get Access to Downloads for Porn Content
Hits: 256 views
1 Star2 Stars3 Stars4 Stars5 Stars (No Ratings Yet)
Loading...

Riley Steele: Love Fool (2010) [1080p] [HD]

Download and Watch This Porn Content Now

Details:

Complete name : Riley Steele, Love Fool (2010) (Dani Jensen, Riley Steele, Sindee Jennings, Tori Black) 1080p.mkv
Format : Matroska
Format version : Version 2
File size : 4.38 GiB
Duration : 1 h 22 min
Overall bit rate : 7 547 kb/s
Writing application : mkvmerge v3.2.0 ('Beginnings') built on Feb 12 2010 16:46:17
Writing library : libebml v0.7.9 + libmatroska v0.8.1

Video
ID : 1
Format : AVC
Format/Info : Advanced Video Codec
Format profile : [email protected]
Format settings : CABAC / 5 Ref Frames
Format settings, CABAC : Yes
Format settings, RefFrames : 5 frames
Codec ID : V_MPEG4/ISO/AVC
Duration : 1 h 22 min
Bit rate : 7 098 kb/s
Width : 1 920 pixels
Height : 1 080 pixels
Display aspect ratio : 16:9
Frame rate mode : Constant
Frame rate : 23.976 FPS
Color space : YUV
Chroma subsampling : 4:2:0
Bit depth : 8 bits
Scan type : Progressive
Bits/(Pixel*Frame) : 0.143
Stream size : 4.03 GiB (92%)
Writing library : x264 core 80 r1376M 3feaec2

Language : English

Audio
ID : 2
Format : AC-3
Format/Info : Audio Coding 3
Commercial name : Dolby Digital
Codec ID : A_AC3
Duration : 1 h 22 min
Bit rate mode : Constant
Bit rate : 448 kb/s
Channel(s) : 6 channels
Channel layout : L R C LFE Ls Rs
Sampling rate : 48.0 kHz
Frame rate : 31.250 FPS (1536 SPF)
Bit depth : 16 bits
Compression mode : Lossy
Stream size : 266 MiB (6%)
Language : English
Service kind : Complete Main
Default : Yes >>Watch or Download>> Riley Steele: Love Fool (2010) [1080p] [HD]

Order Vintagepornbay Premium to Get Access to Downloads for Porn Content
Hits: 204 views
1 Star2 Stars3 Stars4 Stars5 Stars (No Ratings Yet)
Loading...

The Hang Up (1969) (Softcore) (USA) [HD] [1080p]

Download and Watch This Porn Content Now

Crime-erotic drama
This movie is "The" Hang Up " with fake title.

The Hangup (On Screen Title) aka The Hang Up

This seedy cr**e drama focuses on an undercover vice cop. Neurotic and sexually frustrated, he hangs around strip joints, gay bars and swingers clubs. He finally meets and falls in love with a hippie girl.

This is the 1080p rip of the Vinegar Syndrome Release DVD.

Actresses (Listing may be incomplete. They all may or may not be Softcore Nude scenes performers)

Bambi Allen
Bonnie Clark
Genene Cooper
Sharon Matt
Karen Swanson

Actors (Listing may be incomplete. They all may or may not be Softcore Nude scenes performers)

Gene Blackey
William Guhl
James Lemp
Michael March
James E. Myers
Luke Perry
Ted Roter (Credited: Peter Balachoff)
Tony Vorno (Credited: Sebastian Gregory)

Scene Breakdowns

N/A

File Size: 5.46 GB .mkv
Resolution: 1920x1040 @23.976fps
Duration: 01:15:26
Language: English
with built-in English subtitles that can be turned on or off when played back with VLC.

Video Quality: Good
Audio Quality: Good
wildtig2013's Rating of Softcore Nude scenes: Cold Tepid Warm Hot !!!Scorching!!!

>>Watch or Download>> The Hang Up (1969) (Softcore) (USA) [HD] [1080p]

Order Vintagepornbay Premium to Get Access to Downloads for Porn Content