Page 2 of 212
1 Star2 Stars3 Stars4 Stars5 Stars (No Ratings Yet)
Loading...
Hits: 810 views

Bottoms Up 6 – Anal Dildo

Download and Watch This Porn Content Now
Vintage Porn Movies by VintagePornBay.Com
If you want to download these movies in high speed go to Vintagepornbay's Premium Membership...!

Anal Dildo 2

Title: Anal Dildo
Year: 1970s
Country: USA produced and published
Studio: Bottoms Up
Genre: Classic, 8mm Film, Twosome Sex, Fetish, Interracial, Skinny, Sexy Girl, Brunette, Small Tits, Sexy Ass, Blowjob, Dildo Sex, Anal, Hardcore Sex, Facial
Note: Super 8mm color hardcore sex film, with no audio

Information

Splited in: 1part
Size: 303Mb
Type: mp4
Duration: 00:10:05
Resolution: 768 x 576

>>Watch or Download>> Bottoms Up 6 – Anal Dildo

Order Vintagepornbay Premium to Get Access to Downloads for Porn Content
1 Star2 Stars3 Stars4 Stars5 Stars (No Ratings Yet)
Loading...
Hits: 1,057 views

Pornstar Christy Canyon’s Hot Vintage Scene [HQ] [Download]

Download and Watch This Porn Content Now

Pornstar Christy Canyon's Hot Vintage Scene Download

>>Watch or Download>> Pornstar Christy Canyon’s Hot Vintage Scene [HQ] [Download]

Order Vintagepornbay Premium to Get Access to Downloads for Porn Content
1 Star2 Stars3 Stars4 Stars5 Stars (No Ratings Yet)
Loading...
Hits: 1,265 views

Secret Urges (1994) – American Vintage Porn Movie

Download and Watch This Porn Content Now


Country: USA
Language: English
Release Date: 1994
Distributor: Caballero Video
Director: Henri Pachard
Starring: Christina West, Kaitlyn Ashley, Lana Sands, Micki Lynn, Nikki Sinn, Tiffany Mynx, Valeria, Sean Rider, Steve Hatcher, Tom Byron, TT Boy

Description: Everyone has Secret Urges, but these raunchy people know how to act on them. Lana Sands surrenders willingly to T.T. Boy in the privacy of her...toilet. Asia carrera and Kaitlyn Ashley use their tongues in unexpected areas. Tender in the beginning, nasty in the end. You can almost smell the sex when Nikki Sinn gets double nailed. Christina West, Mickie Lynn, Tom Byron: One man, two women, two dildos. Watch out.

File: Secret Urges.mp4
Size: 925953198 bytes (883.06 MiB), duration: 01:13:57, avg.bitrate: 1670 kb/s
Audio: aac, 48000 Hz, stereo (und)
Video: h264, yuv420p, 640x480, 29.97 fps(r) (und)

>>Watch or Download>> Secret Urges (1994) – American Vintage Porn Movie

Order Vintagepornbay Premium to Get Access to Downloads for Porn Content
1 Star2 Stars3 Stars4 Stars5 Stars (No Ratings Yet)
Loading...
Hits: 2,217 views

Wanted For Fist-Fucking (Dino, Dino’s Blue Movie) (1987) – Classic German Porn

Download and Watch This Porn Content Now

63814630_tn_e5d718cd2ca4d0162.jpg

 Year: 1987

Country: Germany
Genre: All Sex, Fisting, Dildo
Duration: 1:14:09
Language: German
Directed by: Dino
Studio: Dino's Blue Movie
Starring: n / a
Description: Two female models apply for 'Faustfickszenen', but this must be checked beforehand by the agent most accurately. The two models must demonstrate in the office, whether their pussies are
suitable for fisting. With the largest rubber cocks and specula, they are stretched and expanded to the max in preparation for fist-fucks. One of the models is ringed and demonstrates how to tie a knot with
her long labia. Subsequently, both fuck each other with a fist, and the agent gets the same. The agent retrieves two 'test fuckers' (men), and the two models have yet to prove their skills in fucking, blowjobs
and sperm swallowing. Both get their desired conclusion.
Fairly sensual sextoy play and FF fisting for the first 30 minutes by 2 quite well endowed girls, who are then joined by 'the agent' for more. Two guys are introduced for the last 25 minutes, and eagerly fist and
then fuck the two original girls, while the agent looks on and plays with herself. An early offering in the DBM series, so original picture quality not the best here but the rip is fine.
No credits on the boxcover or in the film and I can not positively ID any of the three actresses. There is also a sign on-screen at the end saying DBM Trailer but no trailer is shown.

Complete name : Wanted.For.Fist-Fucking1987.wmv
Format : Windows Media
File size : 882 MiB
Duration : 1h 14mn
Overall bit rate : 1 663 Kbps
Maximum Overall bit rate : 928 Kbps
Encoded date : UTC 1970-01-01 00:00:00.000
WM/EncodingSettings : Lavf52.55.0

Video
ID : 1
Format : WMV2
Codec ID : WMV2
Codec ID/Info : Windows Media Video 8
Description of the codec : wmv2
Duration : 1h 14mn
Bit rate : 1 460 Kbps
Width : 640 pixels
Height : 480 pixels
Display aspect ratio : 4:3
Frame rate : 25.000 fps
Bit depth : 8 bits
Bits/(Pixel*Frame) : 0.190
Stream size : 775 MiB (88%)

Audio
ID : 2
Format : WMA
Format version : Version 2
Codec ID : 161
Codec ID/Info : Windows Media Audio
Description of the codec : Windows Media Audio V8
Duration : 1h 14mn
Bit rate : 128 Kbps
Channel count : 2 channels
Sampling rate : 44.1 KHz
Bit depth : 16 bits
Stream size : 67.9 MiB (8%)

63814647_tn_wanted.for.fist_f.jpg

 

>>Watch or Download>> Wanted For Fist-Fucking (Dino, Dino’s Blue Movie) (1987) – Classic German Porn

Order Vintagepornbay Premium to Get Access to Downloads for Porn Content
1 Star2 Stars3 Stars4 Stars5 Stars (No Ratings Yet)
Loading...
Hits: 1,830 views

Sean Michaels’ On The Road 8: Chicago (1993)

Download and Watch This Porn Content Now

Sean Michaels' On The Road 8: Chicago (1993-Video Team)

Cast: Sydney St. James, Flame, Brittany Stone, Mercedes, Shawn Ricks & Sean Michaels.

Director: Sean Michaels

Video Format: AVI (XviD)
Size: 887 MB
Resolution: 640x480
Duration: 1:13:53~74 minutes
Source: VHS

Full Movie Screens:

>>Watch or Download>> Sean Michaels’ On The Road 8: Chicago (1993)

Order Vintagepornbay Premium to Get Access to Downloads for Porn Content
1 Star2 Stars3 Stars4 Stars5 Stars (No Ratings Yet)
Loading...
Hits: 927 views

Christy Canyon – Playing with her Dildo

Download and Watch This Porn Content Now

Image

Size: 26117906 bytes (24.91 MiB), duration: 00:06:52, avg.bitrate: 507 kb/s
Audio: aac, 44100 Hz, stereo (und)
Video: h264, yuv420p, 544x408, 25.00 fps(r) (und)

Download:
http://www.filefactory.com/file/3soro2fz8fir/Christy.Canyon.playing.dildo.rar
http://rapidgator.net/file/0bf405cc9427f756b31d708496773948/Christy.Canyon.playing.dildo.rar.html
http://dfiles.eu/files/bm9mwtebh

Order Vintagepornbay Premium to Get Access to Downloads for Porn Content