Hits: 3,043 views
1 Star2 Stars3 Stars4 Stars5 Stars (No Ratings Yet)
Loading...

Wanted For Fist-Fucking (Dino, Dino’s Blue Movie) (1987) – Classic German Porn

Download and Watch This Porn Content Now

63814630_tn_e5d718cd2ca4d0162.jpg

 Year: 1987

Country: Germany
Genre: All Sex, Fisting, Dildo
Duration: 1:14:09
Language: German
Directed by: Dino
Studio: Dino's Blue Movie
Starring: n / a
Description: Two female models apply for 'Faustfickszenen', but this must be checked beforehand by the agent most accurately. The two models must demonstrate in the office, whether their pussies are
suitable for fisting. With the largest rubber cocks and specula, they are stretched and expanded to the max in preparation for fist-fucks. One of the models is ringed and demonstrates how to tie a knot with
her long labia. Subsequently, both fuck each other with a fist, and the agent gets the same. The agent retrieves two 'test fuckers' (men), and the two models have yet to prove their skills in fucking, blowjobs
and sperm swallowing. Both get their desired conclusion.
Fairly sensual sextoy play and FF fisting for the first 30 minutes by 2 quite well endowed girls, who are then joined by 'the agent' for more. Two guys are introduced for the last 25 minutes, and eagerly fist and
then fuck the two original girls, while the agent looks on and plays with herself. An early offering in the DBM series, so original picture quality not the best here but the rip is fine.
No credits on the boxcover or in the film and I can not positively ID any of the three actresses. There is also a sign on-screen at the end saying DBM Trailer but no trailer is shown.

Complete name : Wanted.For.Fist-Fucking1987.wmv
Format : Windows Media
File size : 882 MiB
Duration : 1h 14mn
Overall bit rate : 1 663 Kbps
Maximum Overall bit rate : 928 Kbps
Encoded date : UTC 1970-01-01 00:00:00.000
WM/EncodingSettings : Lavf52.55.0

Video
ID : 1
Format : WMV2
Codec ID : WMV2
Codec ID/Info : Windows Media Video 8
Description of the codec : wmv2
Duration : 1h 14mn
Bit rate : 1 460 Kbps
Width : 640 pixels
Height : 480 pixels
Display aspect ratio : 4:3
Frame rate : 25.000 fps
Bit depth : 8 bits
Bits/(Pixel*Frame) : 0.190
Stream size : 775 MiB (88%)

Audio
ID : 2
Format : WMA
Format version : Version 2
Codec ID : 161
Codec ID/Info : Windows Media Audio
Description of the codec : Windows Media Audio V8
Duration : 1h 14mn
Bit rate : 128 Kbps
Channel count : 2 channels
Sampling rate : 44.1 KHz
Bit depth : 16 bits
Stream size : 67.9 MiB (8%)

63814647_tn_wanted.for.fist_f.jpg

 

>>Watch or Download>> Wanted For Fist-Fucking (Dino, Dino’s Blue Movie) (1987) – Classic German Porn

Order Vintagepornbay Premium to Get Access to Downloads for Porn Content
Hits: 2,839 views
1 Star2 Stars3 Stars4 Stars5 Stars (No Ratings Yet)
Loading...

Bourgeoises en chaleur (French Gigolo) (1977)

Download and Watch This Porn Content Now

Bourgeoises en chaleur (French Gigolo)

Year: 1977
Country: France
Genre: Feature, Classic
Duration: 1:06:41
French

Directed by: Claude-Bernard Aubert as Burd Tranbaree
Studio: Alpha France

Starring: Amanda as Pervenche (but as Amanda on the DVD) plays Toni's former boss
Barbara Moose in ciné release only, plays Lagie
Danièle Troeger uncredited on DVD, plays Mme Irma's maid
Dolorès Manta as Dolorès Fillit, plays Mme Irma
Elisabeth Buré uncredited on DVD, plays a manicurist at the spa club
Erika Cool plays Sandrine
Evelyne Manta as Corinne Valois?, Plays the photographer's girlfriend (not in the DVD version)
Karine Gambier plays Françoise
Liliane Lemieuvre uncredited on DVD, plays Toni's upstairs neighbour
Siril Gaëlle uncredited on DVD, plays the Spanish cleaner
Ursula White plays Christine, the new client
Véronique Maugarski as Véronique Maugarsky on the DVD, plays Fabienne, the air hostess
XNK0019 scene at the spa club
XNK5974 scene at the spa club
Gabriel Coez plays Toni Duval
Richard Lemieuvre, as Richard Allan, plays Paul
Gabriel Pontello, briefly, plays the photographer

Description: The film opens with a 30-something brown-haired woman (Ursula White) approaching the door of a house, turning back and then summoning up the courage to go in. She looks as if she could be Erika Cool's older sister, but does not have such a distinctive face. Daniele Troeger is the maid who takes her coat. She is introduced to a 30-something woman (large-ish, upturned nose, XNK0018) who runs the establishment and is shown a catalogue of men. One picture is of Richard Lemieuvre, but most are of Charlie Schreiner. She is then introduced to a near lookalike in the form of Gabriel Coez. He gives her a good time. We then see him giving a folder of documents to a mature blonde (Amanda) and asking her to sign them. Is she another client?

>>Watch or Download>> Bourgeoises en chaleur (French Gigolo) (1977)

Order Vintagepornbay Premium to Get Access to Downloads for Porn Content
Hits: 1,526 views
1 Star2 Stars3 Stars4 Stars5 Stars (No Ratings Yet)
Loading...

Brigitte Lahaie – Neglige und Spitzenhosche (1979) aka Frou-Frous

Download and Watch This Porn Content Now

Studio: Starlight Film
Starring: Brigitte Lahaie, Hubert Gerald, Vivian Laurent, Jean-Lois Vattier
Video: 29.97 fps, 640?480 (4:3), XVID = XVID Mpeg-4
Audio: 128 Kbps, 48000 Hz, 2 Ch, 0x55 = Lame MP3
Duration: 00:19:10
FileSize: 272,37 Mb

Download:
http://ul.to/wm3z32hb

Order Vintagepornbay Premium to Get Access to Downloads for Porn Content
Hits: 1,947 views
1 Star2 Stars3 Stars4 Stars5 Stars (No Ratings Yet)
Loading...

Marie-Luise Lusewitz – Verfuehrt (1976)

Download and Watch This Porn Content Now

Image Image

Studio: Love Film (Tabu 5216 / Love 2065)
Starring: Marie-Luise Lusewitz, Uschi Stiegelmaier
FileSize: 78,71 Mb
Runtime: 00:08:06

Download:
http://uploaded.net/file/d0s58dbb/Verfuehrt%20%28Tabu%20Film%29.www.vintagepornbay.com.AVI

Order Vintagepornbay Premium to Get Access to Downloads for Porn Content
Hits: 1,261 views
1 Star2 Stars3 Stars4 Stars5 Stars (No Ratings Yet)
Loading...

Joey Silvera – The Sold Virgin. aka Virgin for Sale

Download and Watch This Porn Content Now

[​IMG] [​IMG]

Studio: O.Z. Classics No.8
Starring: Lori Blue, Joey Silvera, Ken Scudder
FileSize: 130,88 Mb
Runtime: 00:08:56

Download:
http://uploaded.net/file/2dx1hsm2/The Sold Virgin ~ Virgin for Sale www.vintagepornbay.com.avi

Order Vintagepornbay Premium to Get Access to Downloads for Porn Content
Hits: 2,619 views
1 Star2 Stars3 Stars4 Stars5 Stars (No Ratings Yet)
Loading...

Deborah Wells (La Venus Bleue)

Download and Watch This Porn Content Now

Brides in classic porno movies

Scene 4 Deborah Wells (La Venus Bleue)

File size : 149 MiB
Codec ID : xvid
Duration : 7mn 42s
Bit rate : 2 556 Kbps
Width : 720 pixels
Height : 544 pixels

>>Watch or Download>> Deborah Wells (La Venus Bleue)

Order Vintagepornbay Premium to Get Access to Downloads for Porn Content