Hits: 64 views
1 Star2 Stars3 Stars4 Stars5 Stars (No Ratings Yet)
Loading...

Bust A Move (1994) (USA) [Watch & Download]

Download and Watch This Porn Content Now

Details:

Complete name : Bust A Move (1994) (Angel Bust, Bionca, Danielle Rogers, Heather Heart, Jessica Fox, Lynn LeMay, Rebecca Wild) K-Rip.mp4
Format : MPEG-4
Format profile : Base Media
Codec ID : isom (isom/avc1)
File size : 577 MiB
Duration : 1 h 16 min
Overall bit rate mode : Variable
Overall bit rate : 1 060 kb/s
Encoded date : UTC 2018-08-11 20:33:39
Tagged date : UTC 2018-08-11 20:33:39

Video
ID : 1
Format : AVC
Format/Info : Advanced Video Codec
Format profile : [email protected]
Format settings : CABAC / 5 Ref Frames
Format settings, CABAC : Yes
Format settings, RefFrames : 5 frames
Codec ID : avc1
Codec ID/Info : Advanced Video Coding
Duration : 1 h 16 min
Bit rate : 924 kb/s
Maximum bit rate : 3 169 kb/s
Width : 640 pixels
Height : 432 pixels
Display aspect ratio : 4:3
Original display aspect ratio : 4:3
Frame rate mode : Constant
Frame rate : 29.970 (30000/1001) FPS
Color space : YUV
Chroma subsampling : 4:2:0
Bit depth : 8 bits
Scan type : Progressive
Bits/(Pixel*Frame) : 0.112
Stream size : 503 MiB (87%)
Writing library : x264 core 155 r2901 7d0ff22

>>Watch or Download>> Bust A Move (1994) (USA) [Watch & Download]

Order Vintagepornbay Premium to Get Access to Downloads for Porn Content
Hits: 262 views
1 Star2 Stars3 Stars4 Stars5 Stars (No Ratings Yet)
Loading...

Ritual (1999) [DVD5] [HQ] [4.36GB] [Download]

Download and Watch This Porn Content Now

Cast: Vicca, Nikita, Katja Kean, Jenny MacArthur, Danielle Rogers, Keri Windsor, Dee, Evan Stone, Damien Wolf, Julian, Brick Majors, Randy Spears, Tyce Bune, James Bohn, Eric Price

Description: Meet Katherine Yate, adult film icon. The year 2008. Katherine is an exquisite creature, a sexual being the likes of which are rarely seen. Pursued relentlessly by her fans, Katherine begins a downward spiral of depression and anxiety ultimately ending with her emotional destruction. Replete with bizarre medical procedures and surreal sitcom parodies. Ritual is an edgy look at the life of a psychotic porn star pushed to the brink by those who created her and the industry that allowed them to do it.

From Michael Ninn the director that brought you Shock and Latex.

Scene Breakdowns

Scene 1. Vicca, Evan Stone
Scene 2. Danielle Rodgers, Randy Spears
Scene 3. Nikita Gross, Devin Wolf
Scene 4. Dee
Scene 5. Keri Windsor
Scene 6. Dee, Katja Kean, Keri Windsor, Vicca
Scene 7. Jenny McArther, Brick Majors
Scene 8. Katja Kean, Vicca, Eric Price, Julian
Scene 9. Vicca, James Bonn, Tyce Bune

DVD5

4.36 GB
01:40:21
720 x 480
29.970 fps
VOB (ISO)

>>Watch or Download>> Ritual (1999) [DVD5] [HQ] [4.36GB] [Download]

Order Vintagepornbay Premium to Get Access to Downloads for Porn Content
Hits: 677 views
1 Star2 Stars3 Stars4 Stars5 Stars (No Ratings Yet)
Loading...

Nighttime Stories (1991) (US) [Download]

Download and Watch This Porn Content Now

Details:

Complete name : Nighttime Stories (1992) (Melanie Moore; Amber Woods; Debi Diamond; Danielle Rogers).mp4
Format : MPEG-4
Format profile : Base Media
Codec ID : isom (isom/avc1)
File size : 716 MiB
Duration : 1 h 9 min
Overall bit rate mode : Variable
Overall bit rate : 1 449 kb/s
Encoded date : UTC 2014-04-02 04:22:48
Tagged date : UTC 2014-04-02 04:22:48

  • Scene 1. Melanie Moore, Steve Drake
  • Scene 2. Amber Woods, Danielle Rodgers, Debi Diamond
  • Scene 3. Debi Diamond, Melanie Moore, Blake Palmer
  • Scene 4. Amber Woods, Steve Drake
  • Scene 5. Danielle Rodgers, Randy Spears

Video
ID : 1
Format : AVC
Format/Info : Advanced Video Codec
Format profile : [email protected]
Format settings : CABAC / 8 Ref Frames
Format settings, CABAC : Yes
Format settings, RefFrames : 8 frames
Codec ID : avc1
Codec ID/Info : Advanced Video Coding
Duration : 1 h 9 min
Bit rate : 1 363 kb/s
Maximum bit rate : 3 475 kb/s
Width : 576 pixels
Height : 432 pixels
Display aspect ratio : 4:3
Frame rate mode : Constant
Frame rate : 29.970 (29970/1000) FPS
Color space : YUV
Chroma subsampling : 4:2:0
Bit depth : 8 bits
Scan type : Progressive
Bits/(Pixel*Frame) : 0.183
Stream size : 674 MiB (94%)
Writing library : x264 core 125 r2200 999b753 >>Watch or Download>> Nighttime Stories (1991) (US) [Download]

Order Vintagepornbay Premium to Get Access to Downloads for Porn Content
Hits: 579 views
1 Star2 Stars3 Stars4 Stars5 Stars (No Ratings Yet)
Loading...

Women in Need (1990) (Rare) [Download]

Download and Watch This Porn Content Now

Scene Breakdowns

Scene 1. Danielle Rodgers, Peter North
Scene 2. Paula Price, Eric Price
Scene 3. Cameo, Danielle Rodgers
Scene 4. Cameo, Ron Jeremy
Scene 5. Kym Wilde, Peter North

Details:

Complete name : Women In Need (1990) (Cameo, Danielle Rogers, Kym Wilde, Paula Price) Buzz.avi
Format : AVI
Format/Info : Audio Video Interleave
File size : 899 MiB
Duration : 1 h 25 min
Overall bit rate mode : Variable
Overall bit rate : 1 479 kb/s
Writing application : VirtualDubMod 1.5.10.1 (build 2439/release)
Writing library : VirtualDubMod build 2439/release

Video
ID : 0
Format : MPEG-4 Visual
Format profile : Advanced [email protected]
Format settings : BVOP2
Format settings, BVOP : 2
Format settings, QPel : No
Format settings, GMC : No warppoints
Format settings, Matrix : Default (H.263)
Codec ID : XVID
Codec ID/Hint : XviD
Duration : 1 h 25 min
Bit rate : 1 383 kb/s
Width : 512 pixels
Height : 384 pixels
Display aspect ratio : 4:3
Frame rate : 29.970 (30000/1001) FPS
Color space : YUV
Chroma subsampling : 4:2:0
Bit depth : 8 bits
Scan type : Progressive
Compression mode : Lossy
Bits/(Pixel*Frame) : 0.235
Stream size : 841 MiB (94%)
Writing library : XviD 1.0.2 (UTC 2004-08-29)

>>Watch or Download>> Women in Need (1990) (Rare) [Download]

Order Vintagepornbay Premium to Get Access to Downloads for Porn Content
Hits: 2,306 views
1 Star2 Stars3 Stars4 Stars5 Stars (No Ratings Yet)
Loading...

More Dirty Debutantes 4 (1990) – Classic AmericanPorn Download

Download and Watch This Porn Content Now

64955665_more_20dirty_20debut.jpg

Cast:Heather Strong, Andrea Shane, Jennifer Primo, Danielle Rogers, Raven (i), Tina Aria, Traci Starr, Vanessa Fortunato, Jamie Gillis, Ed Powers, Lance Heywood, Robert Aria, The Dark Duck

Description:These are the private home videos from the Nasty Bros. This tape features men and women breaking their video virginity! In this two hour extravaganza you'll witness the likes of sexy Vanessa as she sucks on the huge Dark Dick, as she gets covered with his oozing cream. Jamie and Ed get behind Traci in a Nasty Butt Pounding, mouth watering, drooling action packed scene. The lovely and extremely sexy Porn Legend returns, Raven, after a 6 year vacation from the adult industry to get down and Nasty with Ed and Jamie. She leads you into scenes and tops off the volume with her own sizzling heat! Lance Heywood has his way with two of the cuties chicks ever appearing in this series, this guy has the knack of picking up gorgeous sun tanned beauties from all over the country! He brings them over to Ed and Jamie house for some overheated fun!

>>Watch or Download>> More Dirty Debutantes 4 (1990) – Classic AmericanPorn Download

Order Vintagepornbay Premium to Get Access to Downloads for Porn Content
Hits: 1,006 views
1 Star2 Stars3 Stars4 Stars5 Stars (No Ratings Yet)
Loading...

Danielle Rogers – Dream Girls

Download and Watch This Porn Content Now

Danielle Rogers - Dream Girls

Size: 209MB
Resolution: 640x480
Length: 00:21:53
Type: .avi

>>Watch or Download>> Danielle Rogers – Dream Girls

Order Vintagepornbay Premium to Get Access to Downloads for Porn Content