Page 1 of 212
1 Star2 Stars3 Stars4 Stars5 Stars (1 votes, average: 4.00 out of 5)
Loading...
Hits: 344 views

Women in Need (1990) (Rare) [Download]

Download and Watch This Porn Content Now

Scene Breakdowns

Scene 1. Danielle Rodgers, Peter North
Scene 2. Paula Price, Eric Price
Scene 3. Cameo, Danielle Rodgers
Scene 4. Cameo, Ron Jeremy
Scene 5. Kym Wilde, Peter North

Details:

Complete name : Women In Need (1990) (Cameo, Danielle Rogers, Kym Wilde, Paula Price) Buzz.avi
Format : AVI
Format/Info : Audio Video Interleave
File size : 899 MiB
Duration : 1 h 25 min
Overall bit rate mode : Variable
Overall bit rate : 1 479 kb/s
Writing application : VirtualDubMod 1.5.10.1 (build 2439/release)
Writing library : VirtualDubMod build 2439/release

Video
ID : 0
Format : MPEG-4 Visual
Format profile : Advanced [email protected]
Format settings : BVOP2
Format settings, BVOP : 2
Format settings, QPel : No
Format settings, GMC : No warppoints
Format settings, Matrix : Default (H.263)
Codec ID : XVID
Codec ID/Hint : XviD
Duration : 1 h 25 min
Bit rate : 1 383 kb/s
Width : 512 pixels
Height : 384 pixels
Display aspect ratio : 4:3
Frame rate : 29.970 (30000/1001) FPS
Color space : YUV
Chroma subsampling : 4:2:0
Bit depth : 8 bits
Scan type : Progressive
Compression mode : Lossy
Bits/(Pixel*Frame) : 0.235
Stream size : 841 MiB (94%)
Writing library : XviD 1.0.2 (UTC 2004-08-29)

>>Watch or Download>> Women in Need (1990) (Rare) [Download]

Order Vintagepornbay Premium to Get Access to Downloads for Porn Content
1 Star2 Stars3 Stars4 Stars5 Stars (No Ratings Yet)
Loading...
Hits: 231 views

Assumed Innocence (1991) [Download]

Download and Watch This Porn Content Now

Details:

Complete name : Assumed Innocence (1991) (Lauren Brice; Cameo; Brook London) zzzcap.mp4
Format : MPEG-4
Format profile : Base Media
Codec ID : isom
File size : 705 MiB
Duration : 1h 9mn
Overall bit rate mode : Variable
Overall bit rate : 1 412 Kbps
Encoded date : UTC 2013-01-08 15:35:03
Tagged date : UTC 2013-01-08 15:35:03

Video
ID : 1
Format : AVC
Format/Info : Advanced Video Codec
Format profile : [email protected]
Format settings, CABAC : Yes
Format settings, ReFrames : 4 frames
Codec ID : avc1
Codec ID/Info : Advanced Video Coding
Duration : 1h 9mn
Bit rate : 1 315 Kbps
Maximum bit rate : 2 971 Kbps
Width : 576 pixels
Height : 432 pixels
Display aspect ratio : 4:3
Frame rate mode : Constant
Frame rate : 29.970 fps
Color space : YUV
Chroma subsampling : 4:2:0
Bit depth : 8 bits
Scan type : Progressive
Bits/(Pixel*Frame) : 0.176
Stream size : 657 MiB (93%)
Writing library : x264 core 125 r2200 999b753

>>Watch or Download>> Assumed Innocence (1991) [Download]

Order Vintagepornbay Premium to Get Access to Downloads for Porn Content
1 Star2 Stars3 Stars4 Stars5 Stars (No Ratings Yet)
Loading...
Hits: 716 views

Private And Confidental (1991) – Cameo, Lauren Brice, Nikki Wilde [Watch & Download]

Download and Watch This Porn Content Now

Details:

Complete name : Private and Confidential (1991) (Nikki Wilde; Lauren Brice; Paula Price; Cameo) zzzcap.mp4
Format : MPEG-4
Format profile : Base Media
Codec ID : isom
File size : 577 MiB
Duration : 1h 11mn
Overall bit rate mode : Variable
Overall bit rate : 1 125 Kbps
Encoded date : UTC 2013-03-17 17:26:39
Tagged date : UTC 2013-03-17 17:26:39

Video
ID : 1
Format : AVC
Format/Info : Advanced Video Codec
Format profile : [email protected]
Format settings, CABAC : Yes
Format settings, ReFrames : 8 frames
Codec ID : avc1
Codec ID/Info : Advanced Video Coding
Duration : 1h 11mn
Bit rate : 1 041 Kbps
Maximum bit rate : 3 232 Kbps
Width : 576 pixels
Height : 432 pixels
Display aspect ratio : 4:3
Frame rate mode : Constant
Frame rate : 29.970 fps
Color space : YUV
Chroma subsampling : 4:2:0
Bit depth : 8 bits
Scan type : Progressive
Bits/(Pixel*Frame) : 0.140
Stream size : 534 MiB (92%)
Writing library : x264 core 125 r2200 999b753

Encoded date : UTC 2013-03-17 17:26:39
Tagged date : UTC 2013-03-17 17:26:47

>>Watch or Download>> Private And Confidental (1991) – Cameo, Lauren Brice, Nikki Wilde [Watch & Download]

Order Vintagepornbay Premium to Get Access to Downloads for Porn Content
1 Star2 Stars3 Stars4 Stars5 Stars (2 votes, average: 3.50 out of 5)
Loading...
Hits: 685 views

Rock ‘n Roll Fantasies (1992) (USA) [Full Movie] [Download]

Download and Watch This Porn Content Now
Cast: Cameo, Dominique Simone, Leanna Foxxx, Jacqueline O'Dell, Susan Nichols, Wayne Summers, Cal Jammer, Biff Malibu
Studio: Arrow Productions

Description: Ron Jeremy directs and sex legend Cameo stars in this incredibly sexy glimpse into the rock & roll lifestyle! Featuring nothing but hot blowjobs, erotic fucking, and sexy cum shots, the beautiful ladies in this flick will drive you wild! They plead for warm cum and they get it!

File Size : 826.23 MB
Resolution : 640x426
Duration : 01:28:35
Video : AVC (AVC), 1 241 Kbps, 29.970 fps

>>Watch or Download>> Rock ‘n Roll Fantasies (1992) (USA) [Full Movie] [Download]

Order Vintagepornbay Premium to Get Access to Downloads for Porn Content
1 Star2 Stars3 Stars4 Stars5 Stars (1 votes, average: 4.00 out of 5)
Loading...
Hits: 930 views

Cameo – V.I.C.E. Scene 1 [Watch Online]

Download and Watch This Porn Content Now

Cameo - V.I.C.E. Scene 1

Size: 153MB
Resolution: 640x480
Length: 00:15:16
Type: .avi

>>Watch or Download>> Cameo – V.I.C.E. Scene 1 [Watch Online]

Order Vintagepornbay Premium to Get Access to Downloads for Porn Content