Member LoginGet Access

1 Star2 Stars3 Stars4 Stars5 Stars (No Ratings Yet)
Loading...
Hits: 1,822 views

Wanted For Fist-Fucking (Dino, Dino’s Blue Movie) (1987) – Classic German Porn

Get-Vintagepornbay-Premium-Membership-Access-Now-Button-min

63814630_tn_e5d718cd2ca4d0162.jpg

 Year: 1987

Country: Germany
Genre: All Sex, Fisting, Dildo
Duration: 1:14:09
Language: German
Directed by: Dino
Studio: Dino's Blue Movie
Starring: n / a
Description: Two female models apply for 'Faustfickszenen', but this must be checked beforehand by the agent most accurately. The two models must demonstrate in the office, whether their pussies are
suitable for fisting. With the largest rubber cocks and specula, they are stretched and expanded to the max in preparation for fist-fucks. One of the models is ringed and demonstrates how to tie a knot with
her long labia. Subsequently, both fuck each other with a fist, and the agent gets the same. The agent retrieves two 'test fuckers' (men), and the two models have yet to prove their skills in fucking, blowjobs
and sperm swallowing. Both get their desired conclusion.
Fairly sensual sextoy play and FF fisting for the first 30 minutes by 2 quite well endowed girls, who are then joined by 'the agent' for more. Two guys are introduced for the last 25 minutes, and eagerly fist and
then fuck the two original girls, while the agent looks on and plays with herself. An early offering in the DBM series, so original picture quality not the best here but the rip is fine.
No credits on the boxcover or in the film and I can not positively ID any of the three actresses. There is also a sign on-screen at the end saying DBM Trailer but no trailer is shown.

Complete name : Wanted.For.Fist-Fucking1987.wmv
Format : Windows Media
File size : 882 MiB
Duration : 1h 14mn
Overall bit rate : 1 663 Kbps
Maximum Overall bit rate : 928 Kbps
Encoded date : UTC 1970-01-01 00:00:00.000
WM/EncodingSettings : Lavf52.55.0

Video
ID : 1
Format : WMV2
Codec ID : WMV2
Codec ID/Info : Windows Media Video 8
Description of the codec : wmv2
Duration : 1h 14mn
Bit rate : 1 460 Kbps
Width : 640 pixels
Height : 480 pixels
Display aspect ratio : 4:3
Frame rate : 25.000 fps
Bit depth : 8 bits
Bits/(Pixel*Frame) : 0.190
Stream size : 775 MiB (88%)

Audio
ID : 2
Format : WMA
Format version : Version 2
Codec ID : 161
Codec ID/Info : Windows Media Audio
Description of the codec : Windows Media Audio V8
Duration : 1h 14mn
Bit rate : 128 Kbps
Channel count : 2 channels
Sampling rate : 44.1 KHz
Bit depth : 16 bits
Stream size : 67.9 MiB (8%)

63814647_tn_wanted.for.fist_f.jpg

 

 

Silver-Membership-300x241

*Requires at least Silver Membership Level!

Download this Scene/Movie!

Access Hidden & Special Streaming Video and Download Links

Notes: Platinum Membership has access to the entire (100%) website and also opens the hidden content. Gold Membership opens 80% and Silver 50%. Bronze Membership is for 20% content access of this blog's hidden parts.

Download or Watch This Porn Content Now!

Published by

Classic Porn Downloader

Classic Porn Downloader

Report Dead-Links and Deleted Videos from here! We will re-upload soon!
Visit Vintagepornbay Tube too!
Get High-Speed Download by This Tool on Vintagepornbay!