1 Star2 Stars3 Stars4 Stars5 Stars (1 votes, average: 5.00 out of 5)
Loading...
Hits: 335 views

Pussy Clips 11 (1996) [Movie] [Watch & Download]

Download and Watch This Porn Content Now

Pussy Clips #11 (1996) (Anna Malle, Brooke Luv, Davia Ardell, Tabitha Stevens) K-Rip Details:

Video
ID : 1
Format : AVC
Format/Info : Advanced Video Codec
Format profile : High@L3
Format settings, CABAC : Yes
Format settings, ReFrames : 5 frames
Codec ID : avc1
Codec ID/Info : Advanced Video Coding
Duration : 1h 58mn
Bit rate : 1 592 Kbps
Maximum bit rate : 4 279 Kbps
Width : 576 pixels
Height : 432 pixels
Display aspect ratio : 4:3
Frame rate mode : Constant
Frame rate : 29.970 fps
Color space : YUV
Chroma subsampling : 4:2:0
Bit depth : 8 bits
Scan type : Progressive
Bits/(Pixel*Frame) : 0.213
Stream size : 1.31 GiB (96%)
Writing library : x264 core 105 r1724 b02df7b

Encoded date : UTC 2010-10-03 03:24:29
Tagged date : UTC 2010-10-03 03:25:48

Audio
ID : 2
Format : AAC
Format/Info : Advanced Audio Codec
Format profile : HE-AAC / LC
Codec ID : 40
Duration : 1h 58mn
Bit rate mode : Variable
Bit rate : 63.9 Kbps
Maximum bit rate : 69.4 Kbps
Channel(s) : 1 channel
Channel positions : Front: C
Sampling rate : 48.0 KHz / 24.0 KHz
Compression mode : Lossy
Stream size : 54.1 MiB (4%)
Encoded date : UTC 2010-10-03 03:25:45
Tagged date : UTC 2010-10-03 03:25:48

Gold-Membership-1

LOCKED CONTENT

(Extended details of this content is only available for Premium Members)

*Requires at least Gold Membership Level!

Download this Scene/Movie!

Access Hidden & Special Streaming Video and Download Links

Notes: Platinum Membership has access to the entire (100%) website and also opens the hidden content. Gold Membership opens 80% and Silver 50%. Bronze Membership is for 20% content access of this blog's hidden parts.

Published by

Vintage Porn

Video Clips Poster Bot on Vintagepornbay

Report Dead-Links and Deleted Videos from here! We will re-upload soon!
Visit Vintagepornbay Tube too!
Get High-Speed Download by This Tool on Vintagepornbay!