1 Star2 Stars3 Stars4 Stars5 Stars (1 votes, average: 5.00 out of 5)
Loading...
Hits: 305 views

Battle of the Titans (1986) [Rare] [Vintage Movie] [HQ] [Download]

Download and Watch This Porn Content Now

Details: Download Battle of the Titans (1986) Vintage Porn Movie (Rare):

  • Scene 1. Amber Lynn, Randy West
  • Scene 2. Nina Hartley, Steve Drake
  • Scene 3. Sade, Peter North
  • Scene 4. Amber Lynn, Peter North
  • Scene 5. Nina Hartley, Peter North
  • Scene 6. Nina Hartley, Marc Wallice
  • Scene 7. Amber Lynn, Tom Byron
  • Scene 8. Amber Lynn, Nina Hartley

Complete name : Battle of the Titans (1986) (Amber Lynn; Nina Hartley; Sade) zzzcap.mp4
Format : MPEG-4
Format profile : Base Media
Codec ID : isom (isom/avc1)
File size : 908 MiB
Duration : 1 h 17 min
Overall bit rate mode : Variable
Overall bit rate : 1 643 kb/s
Encoded date : UTC 2015-11-22 03:34:19
Tagged date : UTC 2015-11-22 03:34:19

Video
ID : 1
Format : AVC
Format/Info : Advanced Video Codec
Format profile : High@L3.1
Format settings, CABAC : Yes
Format settings, ReFrames : 8 frames
Codec ID : avc1
Codec ID/Info : Advanced Video Coding
Duration : 1 h 17 min
Bit rate : 1 558 kb/s
Maximum bit rate : 8 421 kb/s
Width : 640 pixels
Height : 480 pixels
Display aspect ratio : 4:3
Frame rate mode : Constant
Frame rate : 29.970 (29970/1000) FPS
Color space : YUV
Chroma subsampling : 4:2:0
Bit depth : 8 bits
Scan type : Progressive
Bits/(Pixel*Frame) : 0.169
Stream size : 861 MiB (95%)
Writing library : x264 core 125 r2200 999b753

Encoded date : UTC 2015-11-22 03:34:19
Tagged date : UTC 2015-11-22 03:34:25

>>Watch or Download: Battle of the Titans (1986) [Rare] [Vintage Movie] [HQ] [Download]

Order Vintagepornbay Premium to Get Access to Downloads for Porn Content
1 Star2 Stars3 Stars4 Stars5 Stars (1 votes, average: 5.00 out of 5)
Loading...
Hits: 282 views

Candy Snacker (1993) [Rare Classic Porn Movie]

Download and Watch This Porn Content Now

Watch and Download Candy Snacker (1993) Rare Vintage Porn Movie.

Details:

Complete name : Candy Snacker (1993) (Kelly O_Dell; Debi Diamond; Cash; Porsche Lynn) zzzcap.mp4
Format : MPEG-4
Format profile : Base Media
Codec ID : isom (isom/avc1)
File size : 822 MiB
Duration : 1 h 15 min
Overall bit rate mode : Variable
Overall bit rate : 1 525 kb/s
Encoded date : UTC 2015-05-29 18:06:50
Tagged date : UTC 2015-05-29 18:06:50

Video
ID : 1
Format : AVC
Format/Info : Advanced Video Codec
Format profile : High@L3.1
Format settings, CABAC : Yes
Format settings, ReFrames : 8 frames
Codec ID : avc1
Codec ID/Info : Advanced Video Coding
Duration : 1 h 15 min
Bit rate : 1 443 kb/s
Maximum bit rate : 3 187 kb/s
Width : 640 pixels
Height : 480 pixels
Display aspect ratio : 4:3
Frame rate mode : Constant
Frame rate : 29.970 (29970/1000) FPS
Color space : YUV
Chroma subsampling : 4:2:0
Bit depth : 8 bits
Scan type : Progressive
Bits/(Pixel*Frame) : 0.157
Stream size : 778 MiB (95%)
Writing library : x264 core 125 r2200 999b753

Encoded date : UTC 2015-05-29 18:06:50
Tagged date : UTC 2015-05-29 18:06:56

Audio
ID : 2
Format : MPEG Audio
Format version : Version 1
Format profile : Layer 3
Mode : Joint stereo
Mode extension : MS Stereo
Codec ID : 6B
Duration : 1 h 15 min
Bit rate mode : Variable
Bit rate : 78.6 kb/s
Nominal bit rate : 96.0 kb/s
Maximum bit rate : 85.2 kb/s
Channel(s) : 2 channels
Sampling rate : 32.0 kHz
Compression mode : Lossy
Stream size : 42.4 MiB (5%)
Writing library : LAME3.99r
Encoding settings : -m j -V 4 -q 2 -lowpass 15.1 --abr 96
Encoded date : UTC 2015-05-29 18:06:55
Tagged date : UTC 2015-05-29 18:06:56

>>Watch or Download: Candy Snacker (1993) [Rare Classic Porn Movie]

Order Vintagepornbay Premium to Get Access to Downloads for Porn Content
1 Star2 Stars3 Stars4 Stars5 Stars (No Ratings Yet)
Loading...
Hits: 336 views

Andrew Blake – Playthings (1999) (Rare Movie) [Download]

Download and Watch This Porn Content Now
Playthings (1999) Download Vintage Porn Movie

Studio: Studio A Entertainment
Cast: Dahlia Grey, Regina Hall, Karin, Victoria Knight & Ashley
Description: Andrew Blake's "Playthings" is a luxurious and decadent fantasy world of women. Fashion and architecture. Dahlia and her friends show you a non-stop display of intimate anatomy, sexual arousal and a collection of the worlds most beautiful legs!

Our remarks: Ashley is Svetla Lubova / Ashley Adams. There's also Jana Mikusova, possibly credited as Karin. It is a very rare appearance of Ashley and Jana in the movie and was our main motivation in uploading it. Enjoy.

Size: 1.65 GB
Duration: 01:59:43
Video: MPEG4 (H264) 640x480 23.98fps

>>Watch or Download: Andrew Blake – Playthings (1999) (Rare Movie) [Download]

Order Vintagepornbay Premium to Get Access to Downloads for Porn Content
1 Star2 Stars3 Stars4 Stars5 Stars (No Ratings Yet)
Loading...
Hits: 342 views

Sunday Mirror – Karma Sextra 04-02-1996 [Very Rare Magazine]

Download and Watch This Porn Content Now

Previews of some scans from the gallery:

Mega rare supplement. It's very rare and can you imagine something like this getting published today in a Sunday magazine. It's softcore, the model is gorgeous. If anyone thinks this is in the wrong category please move it. Enjoy. Pictures by Tony Ward, Illustrations Annie Farrall...

Full Scans:

>>Watch or Download: Sunday Mirror – Karma Sextra 04-02-1996 [Very Rare Magazine]

Order Vintagepornbay Premium to Get Access to Downloads for Porn Content