Premium Access
1 Star2 Stars3 Stars4 Stars5 Stars (No Ratings Yet)
Loading...
Hits: 792 views

Intercourse with the Vampire 1 (1994) (USA) [HQ] + DVD5

Details:

Complete name :Intercourse With The Vampire #1 (1994) (Christina Angel, Kim Chambers, Nicole London, Selina St. Clair, Tammi Ann, Tara Monroe, Vixxxen) x264, K-Rip.mp4
Format : MPEG-4
Format profile : Base Media
Codec ID : isom
File size : 918 MiB
Duration : 1h 15mn
Overall bit rate mode : Variable
Overall bit rate : 1 703 Kbps
Encoded date : UTC 2010-12-20 04:17:28
Tagged date : UTC 2010-12-20 04:17:28

Scene 1. Nicole London, Alex Sanders, Buck Adams
Scene 2. Kim Chambers, Tammi Ann, Rocco Siffredi
Scene 3. Selina St. Clair, Gerry Pike
Scene 4. Christina Angel, Tara Monroe, Rocco Siffredi
Scene 5. Nicole London, VixXxen

Video
ID : 1
Format : AVC
Format/Info : Advanced Video Codec
Format profile : High@L3.2
Format settings, CABAC : Yes
Format settings, ReFrames : 16 frames
Codec ID : avc1
Codec ID/Info : Advanced Video Coding
Duration : 1h 15mn
Bit rate : 1 635 Kbps
Maximum bit rate : 3 881 Kbps
Width : 640 pixels
Height : 480 pixels
Display aspect ratio : 4:3
Frame rate mode : Constant
Frame rate : 29.970 fps
Color space : YUV
Chroma subsampling : 4:2:0
Bit depth : 8 bits
Scan type : Progressive
Bits/(Pixel*Frame) : 0.178
Stream size : 882 MiB (96%)
Writing library : x264 core 112 r1834 a51816a

Encoded date : UTC 2010-12-20 04:17:28
Tagged date : UTC 2010-12-20 04:17:35

Audio
ID : 2
Format : AAC
Format/Info : Advanced Audio Codec
Format profile : HE-AAC / LC
Codec ID : 40
Duration : 1h 15mn
Bit rate mode : Variable
Bit rate : 64.0 Kbps
Maximum bit rate : 72.4 Kbps
Channel(s) : 2 channels
Channel positions : Front: L R
Sampling rate : 48.0 KHz / 24.0 KHz
Compression mode : Lossy
Stream size : 34.5 MiB (4%)
Encoded date : UTC 2010-12-20 04:17:33
Tagged date : UTC 2010-12-20 04:17:35

>>Read More [Download/Watch/Show]: Intercourse with the Vampire 1 (1994) (USA) [HQ] + DVD5

Get-Vintagepornbay-Premium-Membership-Access-Now-Button-min
1 Star2 Stars3 Stars4 Stars5 Stars (1 votes, average: 5.00 out of 5)
Loading...
Hits: 661 views

My uncle fucks me so hard and makes me his wife

He was fucking me so hard, that my ass started to kinda hurt from slamming against his body so hard. “Oh, uncle Mark, fuck me harder, harder ...:

>>Read More [Download/Watch/Show]: My uncle fucks me so hard and makes me his wife

Get-Vintagepornbay-Premium-Membership-Access-Now-Button-min
1 Star2 Stars3 Stars4 Stars5 Stars (1 votes, average: 5.00 out of 5)
Loading...
Hits: 509 views

Bacanal de Adolescentes (1982) (Brazil) [HQ] [Vintage Porn Movie] [Watch and Download]

for the latest updates of the most popular classic porn videos

Production year: 1982

Duration: 0:50:35

Country: Brazil

Directed by: Norberto Ramalho

Cast: Fernando Barreto, Fernanda, Priscila Presley, Will Roberto, Merce Valsi, Francisco Viana

Description: Rare Brazilian incest porn movie without sound.

Size: 35Mb + 34Mb + 34Mb + 27Mb + 31Mb + 17Mb >>Read More [Download/Watch/Show]: Bacanal de Adolescentes (1982) (Brazil) [HQ] [Vintage Porn Movie] [Watch and Download]

Get-Vintagepornbay-Premium-Membership-Access-Now-Button-min
1 Star2 Stars3 Stars4 Stars5 Stars (1 votes, average: 5.00 out of 5)
Loading...
Hits: 249 views

Melanie Moore – Flying High Scene 5 [Watch Online]

Melanie Moore - Flying High

Scene 5

Size: 106MB
Resolution: 640x480
Length: 00:10:23
Type: .avi

>>Read More [Download/Watch/Show]: Melanie Moore – Flying High Scene 5 [Watch Online]

Get-Vintagepornbay-Premium-Membership-Access-Now-Button-min
1 Star2 Stars3 Stars4 Stars5 Stars (3 votes, average: 4.33 out of 5)
Loading...
Hits: 1,230 views

STEPSON FILMING HIS SEXUAL RELATIONSHIP WITH MOM!

STEPSON FILMING HIS SEXUAL RELATIONSHIP WITH MOM [WWW.VINTAGEPORNBAY.COM] VIDEO FULL VERSION:

>>Read More [Download/Watch/Show]: STEPSON FILMING HIS SEXUAL RELATIONSHIP WITH MOM!

Get-Vintagepornbay-Premium-Membership-Access-Now-Button-min